Важное объявление!
У Нас Все раздачи мультитрекерные, при нуле пиров в релизах, можете смело вставать на закачку!
 
Автор Сообщение

HUNTER

Стаж:
4 года 8 месяцев
Сообщений:
62050

Репутация: 101

[+] [-]
Вне форума [Профиль] [ЛС]

Ваш счастливый ребенок-

Год выпуска: 2006
Страна: Россия
Жанр: Обучающее видео
Продолжительность: 38 мин
Автор: Харви Карп -Описание: Ваш ребенок стал старше и теперь Вам нужно научиться уговаривать его делать то, что ему совсем не нравится, например, ложиться спать днем.
В фильме "Ваш счастливый малыш" доктор Карп, профессор детской психиатрии, покажет Вам, как нужно развивать в ребенке чувство собственного достоинства, как привить ему терпение и научить уважать окружающих его детей и взрослых. Вы станете лучше понимать, как ребенок воспринимает окружающий мир, а значит, Вам будет легче с ним общаться.
Мягкий подход Харви Карпа к заботе о детях представляет собой развитие принципов, изложенных знаменитым детским доктором Бенджамином Споком. Папы и мамы должны поставить себя на место своего ребенка. Методика Карпа проверена многими родителями по всему миру. В число тех тысяч родителей, с которыми Карп делился своими профессиональными секретами, входят Мадонна, Мишель Пфайффер и Пирс Броснан.
Способствует развитию: произвольности (умения играть по правилам и выполнять инструкции), навыков общения и партнерства, общей культуры и эрудиции.
-Качество: DVDRip
Формат: AVI
Видео кодек: XviD
Аудио кодек: MP3
Видео: 688x512 (1.34:1), 25 fps, XviD build 50 ~1532 kbps avg, 0.17 bit/pixel
Аудио: 48 kHz, MPEG Layer 3, 2 ch, ~192.00 kbps avg-

Доп. информация

MediaInfo

Код: copyText_writeLink('this.parentNode.parentNode.nextSibling.nextSibling'); Общее
Полное имя : F:\Мои роздачи\Новая папка\обучающее\Ваш счастливый ребенок.avi
Формат : AVI
Формат/Информация : Audio Video Interleave
Размер файла : 467 Мбайт
Продолжительность : 37 м.
Общий поток : 1738 Кбит/сек
Название фильма : Vash_schastlyvy_rebenok.Title1.DVDRip
Программа кодирования : Lavf52.33.0
Формат оригинала/Имя : Vash_schastlyvy_rebenok
Видео
Идентификатор : 0
Формат : MPEG-4 Visual
Профиль формата : Simple@L3
Параметр BVOP формата : Нет
Параметр QPel формата : Нет
Параметр GMC формата : Без точки перехода
Параметр матрицы формата : Default (H.263)
Идентификатор кодека : XVID
Идентификатор кодека/Подсказка : XviD
Продолжительность : 37 м.
Битрейт : 1534 Кбит/сек
Ширина : 688 пикселей
Высота : 512 пикселей
Соотношение сторон : 4:3
Частота кадров : 25,000 кадров/сек
Цветовое пространство : YUV
Субдискретизация насыщенности : 4:2:0
Битовая глубина : 8 бит
Тип развёртки : Прогрессивная
Метод сжатия : С потерями
Бит/(Пиксели*Кадры) : 0.174
Размер потока : 412 Мбайт (88%)
Библиотека кодирования : XviD 1.2.1 (UTC 2008-12-04)
Аудио
Идентификатор : 1
Формат : MPEG Audio
Версия формата : Version 1
Профиль формата : Layer 3
Режим : Joint stereo
Расширение режима : MS Stereo
Идентификатор кодека : 55
Идентификатор кодека/Подсказка : MP3
Продолжительность : 37 м.
Вид битрейта : Постоянный
Битрейт : 192 Кбит/сек
Каналы : 2 канала
Частота : 48,0 КГц
Метод сжатия : С потерями
Размер потока : 51,6 Мбайт (11%)
Выравнивание : Соединение по промежуткам
Продолжительность промежутка : 24 мс. (0,60 видеокадр)
Время предзагрузки промежутка : 24 мс.
Библиотека кодирования : LAME3.98.2

Скриншоты


_________________
Показать сообщения:    

Текущее время: Сегодня 11:34

Часовой пояс: GMT



Вы не можете начинать темы
Вы не можете отвечать на сообщения
Вы не можете редактировать свои сообщения
Вы не можете удалять свои сообщения
Вы не можете голосовать в опросах
Вы не можете прикреплять файлы к сообщениям
Вы не можете скачивать файлы
Наши партнеры: интернет магазин Ивановского трикотажа textilla.ru