Ивановский Торрент трекер
Яндекс.Погода
 

[Цитировать]
димитри37

Ватерлоо / Waterloo
Страна: СССР, Италия
Производство: Мосфильм, Dino de Laurentiis Cinematografica
Жанр: боевик, драма, военный, история
Год выпуска: 1970
Продолжительность: 02:08:07
Перевод: Профессиональный (многоголосый закадровый) - "Мосфильм"
Оригинальная аудиодорожка: нет
Cубтитры: нет
Режиссер: Сергей Бондарчук
В ролях:
Род Стайгер, Олег Видов, Василий Ливанов, Кристофер Пламмер, Сергей Закариадзе, Дэниэл О`Херлихи, Орсон Уэллс, Джек Хокинс, Ирина Скобцева-Бондарчук, Владимир Дружников, Вирджиния Маккенна, Майкл Уилдинг...
Описание: Грандиозный фильм с массовыми батальными сценами, посвящённый событиям 1814-15 годов, последовавшим за взятием Парижа русскими войсками. Начинается фильм со сцены первого отречения Наполеона и его отъезда на остров Эльба. Вскоре Наполеон с небольшим отрядом тайно покидает остров Эльба и высаживается на юге Франции. После триумфального похода на Париж он снова становится во главе возрождённой армии и пытается оказать сопротивление коалиции Англии, России и Пруссии. Наполеон одерживает частичную победу над войсками Блюхера, но в битве при Ватерлоо терпит поражение, которое приводит к окончательному падению его империи...
В фильме в массовых сценах были заняты пятнадцать тысяч советских солдат, изображавших пехотные подразделения, и ещё две тысячи кавалеристов, изображавших казачьи кавалерийские части.- -Исходник: DVD9
Тип релиза: DVDRip
Контейнер: AVI
Видео: 704x304 (2,35:1), 25 fps, XviD ~ 1234 kbps avg, 0.231 bit/pixel
Аудио: 48 kHz, Dolby AC3 5.1, 384 kbps

MediaInfo

Общее
Полное имя : Vaterloo.1970.DVDRip_[Youtracker]_by_AVP Studio.avi
Формат : AVI
Формат/Информация : Audio Video Interleave
Размер файла : 1,46 Гбайт
Продолжительность : 2 ч. 8 м.
Общий поток : 1628 Кбит/сек
Программа кодирования : VirtualDubModRus 1.5.10.2 (build 2542/release)
Библиотека кодирования : VirtualDubMod build 2542/release
Видео
Идентификатор : 0
Формат : MPEG-4 Visual
Профиль формата : Advanced Simple@L5
Параметр BVOP формата : 1
Параметр QPel формата : Нет
Параметр GMC формата : Без точки перехода
Параметр матрицы формата : Выборочная
Идентификатор кодека : XVID
Идентификатор кодека/Подсказка : XviD
Продолжительность : 2 ч. 8 м.
Битрейт : 1234 Кбит/сек
Ширина : 704 пикселя
Высота : 304 пикселя
Соотношение сторон : 2,35:1
Частота кадров : 25,000 кадров/сек
Цветовое пространство : YUV
Субдискретизация насыщенности : 4:2:0
Битовая глубина : 8 бит
Тип развёртки : Прогрессивная
Метод сжатия : С потерями
Бит/(Пиксели*Кадры) : 0.231
Размер потока : 1,10 Гбайт (76%)
Библиотека кодирования : XviD 65
Аудио
Идентификатор : 1
Формат : AC-3
Формат/Информация : Audio Coding 3
Расширение режима : CM (complete main)
Идентификатор кодека : 2000
Продолжительность : 2 ч. 8 м.
Вид битрейта : Постоянный
Битрейт : 384 Кбит/сек
Каналы : 6 каналов
Расположение каналов : Front: L C R, Side: L R, LFE
Частота : 48,0 КГц
Битовая глубина : 16 бит
Метод сжатия : С потерями
Размер потока : 352 Мбайт (24%)
Выравнивание : Разделение по промежуткам
Продолжительность промежутка : 40 мс. (1,00 видеокадр)
Время предзагрузки промежутка : 500 мс

Скриншоты

-
Показать сообщения:    

Текущее время: 22-Окт 01:41

Часовой пояс: UTC - 1


Вы не можете начинать темы
Вы не можете отвечать на сообщения
Вы не можете редактировать свои сообщения
Вы не можете удалять свои сообщения
Вы не можете голосовать в опросах
Вы не можете прикреплять файлы к сообщениям
Вы не можете скачивать файлы

!ВНИМАНИЕ!
Сайт не предоставляет электронные версии произведений, а занимается лишь коллекционированием и каталогизацией ссылок, присылаемых и публикуемых на форуме нашими читателями. Если вы являетесь правообладателем какого-либо представленного материала и не желаете, чтобы ссылка на него находилась в нашем каталоге, свяжитесь с нами, и мы незамедлительно удалим ее. Файлы для обмена на трекере предоставлены пользователями сайта, и администрация не несет ответственности за их содержание. Просьба не заливать файлы, защищенные авторскими правами, а также файлы нелегального содержания!