Ивановский Торрент трекер
Яндекс.Погода
 

[Цитировать]
димитри37

Васильки. Серии 1-4 из 4
Год выпуска: 2013
Производство:
Жанр: Мелодрама
Продолжительность: 4~00:47:00
Режиссёр: Игорь Мужжухин
В ролях: Елена Шилова (II), Иван Жидков, Петр Баранчеев, Анна Сильчук, Денис Васильев, Татьяна Жукова-Киртбая, Юлия Юрченко, Людмила Уланова (II), Полина Пахомова, Макс Бирюков, Дмитрий Куделин, Анна Шевченко, Галина Гусева
Описание: Оля, простая деревенская девушка, безответно влюблена в красавца и местного героя Васю. Ради своей любви Оля отказывается от музыкального колледжа, о котором всю жизнь мечтала, и поступает вслед за Васей в сельхозучилище.
По стечению обстоятельств героине удается урвать несколько часов счастья рядом с любимым. Однако последствия оказываются слишком тяжелыми: Вася бросает учебу и, не попрощавшись с Олей, уезжает на военную службу, а девушка вскоре понимает, что беременна..
Все раздачи сериала: Васильки

Качество: HDTVRip 720p [Рип с HDTV 1080i]
Формат: MKV
Видео кодек: H.264
Аудио кодек: MPEG Audio
Видео: x264, 1280 х 720 (16:9), 25,000 кадр/сек, ~ 3850 Кбит/сек
Аудио: MPEG Audio 48000Hz stereo 192 Кбит/сек
Сторонней рекламы нет!

MediaInfo

ОбщееУникальный идентификатор : 201298370104436187927229837057660750799 (0x9770A7E75C9199738394E6E3C8130BCF)Полное имя : E:\Downloads\55\Васильки HDTVRip 720p\Васильки 01_02_серия _HDTVRip_720p_by_Серый1779 серия.mkvФормат : MatroskaРазмер файла : 2,59 ГбайтПродолжительность : 1 ч. 31 м.Общий поток : 4042 Кбит/секДата кодирования : UTC 2013-04-22 10:04:06Программа кодирования : mkvmerge v4.9.1 ('Ich will') built on Sep 21 2011 17:48:11Библиотека кодирования : libebml v1.2.1 + libmatroska v1.2.0
ВидеоИдентификатор : 1Формат : AVCФормат/Информация : Advanced Video CodecПрофиль формата : High@L4.1Параметр CABAC формата : ДаПараметр ReFrames формата : 9 кадровИдентификатор кодека : V_MPEG4/ISO/AVCПродолжительность : 1 ч. 31 м.Битрейт : 3850 Кбит/секШирина : 1280 пикс.Высота : 720 пикс.Соотношение сторон : 16:9Частота кадров : 25,000 кадр/секЦветовое пространство : YUVПодвыборка цветности : 4:2:0Битовая глубина : 8 битТип развёртки : ПрогрессивнаяБит/(Пиксели*Кадры) : 0.167Размер потока : 2,41 Гбайт (93%)Библиотека кодирования : x264 core 118 r2085 8a62835Настройки программы : cabac=1 / ref=9 / deblock=1:-3:-3 / analyse=0x3:0x133 / me=umh / subme=9 / psy=1 / psy_rd=1.00:0.15 / mixed_ref=1 / me_range=32 / chroma_me=1 / trellis=2 / 8x8dct=1 / cqm=0 / deadzone=21,11 / fast_pskip=0 / chroma_qp_offset=-3 / threads=6 / sliced_threads=0 / nr=0 / decimate=1 / interlaced=0 / bluray_compat=0 / constrained_intra=0 / bframes=9 / b_pyramid=2 / b_adapt=2 / b_bias=0 / direct=3 / weightb=1 / open_gop=0 / weightp=2 / keyint=250 / keyint_min=25 / scenecut=40 / intra_refresh=0 / rc=2pass / mbtree=0 / bitrate=3850 / ratetol=1.0 / qcomp=0.60 / qpmin=0 / qpmax=69 / qpstep=4 / cplxblur=20.0 / qblur=0.5 / ip_ratio=1.40 / pb_ratio=1.30 / aq=2:0.70Основные цвета : BT.709-5, BT.1361, IEC 61966-2-4, SMPTE RP177Характеристики трансфера : BT.709-5, BT.1361Коэффициенты матрицы : BT.709-5, BT.1361, IEC 61966-2-4 709, SMPTE RP177
АудиоИдентификатор : 2Формат : MPEG AudioВерсия формата : Version 1Профиль формата : Layer 2Идентификатор кодека : A_MPEG/L2Идентификатор кодека/Подсказка : MP2Продолжительность : 1 ч. 31 м.Вид битрейта : ПостоянныйБитрейт : 192 Кбит/секКаналы : 2 каналаЧастота : 48,0 КГцМетод сжатия : С потерямиРазмер потока : 126 Мбайт (5%)

h264 log

x264 [info]: frame I:1023 Avg QP:16.03 size:132555x264 [info]: frame P:30242 Avg QP:18.45 size: 40663x264 [info]: frame B:106218 Avg QP:20.95 size: 12050x264 [info]: consecutive B-frames: 1.7% 1.6% 19.0% 8.9% 6.7% 60.7% 1.1% 0.1% 0.1% 0.0%x264 [info]: mb I I16..4: 7.7% 70.2% 22.1%x264 [info]: mb P I16..4: 1.1% 8.2% 1.2% P16..4: 52.2% 21.2% 7.0% 1.1% 0.4% skip: 7.6%x264 [info]: mb B I16..4: 0.1% 0.6% 0.1% B16..8: 34.7% 7.3% 2.2% direct: 5.8% skip:49.2% L0:34.7% L1:50.6% BI:14.7%x264 [info]: 8x8 transform intra:75.7% inter:55.8%x264 [info]: direct mvs spatial:99.4% temporal:0.6%x264 [info]: coded y,uvDC,uvAC intra: 84.9% 86.4% 64.4% inter: 22.8% 22.8% 3.5%x264 [info]: i16 v,h,dc,p: 27% 15% 10% 48%x264 [info]: i8 v,h,dc,ddl,ddr,vr,hd,vl,hu: 18% 11% 6% 7% 11% 13% 11% 12% 12%x264 [info]: i4 v,h,dc,ddl,ddr,vr,hd,vl,hu: 16% 10% 4% 8% 14% 14% 12% 11% 11%x264 [info]: i8c dc,h,v,p: 36% 21% 25% 18%x264 [info]: Weighted P-Frames: Y:1.4% UV:0.7%x264 [info]: ref P L0: 48.2% 12.5% 20.1% 4.7% 4.6% 2.9% 3.0% 1.5% 1.9% 0.6% 0.0%x264 [info]: ref B L0: 86.1% 8.5% 2.3% 1.2% 0.7% 0.6% 0.4% 0.2%x264 [info]: ref B L1: 95.8% 4.2%x264 [info]: kb/s:3848.14
x264 [total]: encoded 137483 frames, 4.01 fps, 3848.14 kb/s

Внимание ! Раздача ведётся путём добавления новых серий

Внимание! Раздача ведётся путём добавления новых серий; при каждом добавлении создётся новый торрент. Чтобы начать докачку новой серии, пользователям необходимо сделать следующее:
(1) остановить скачивание,
(2) удалить старый торрент у себя из клиента (старые серии удалять не надо),
(3) скачать новый торрент и запустить его у себя в клиенте вместо старого, при этом указать клиенту путь в старую папку куда и должно происходить скачивание новых серий.
Ваш клиент при этом должен произвести хеширование (проверку) старой папки (если не производит сам - помогите ему сделать это), и будет докачивать только те серии которых у вас ещё нет. Старые серии при этом не удаляются, а продолжают раздаваться!
Eсли вы уже удалили старые серии, то предотвратить повторную закачку старых серий можно, отжав галочку в соответсвующих местах при запуске нового торрента. По возможности, желательно не удалять старые серии как можно дольше чтобы релизёр не столько продолжал раздавать старые серии, а смог сконцентрироваться на новых.

Скриншоты

Показать сообщения:    

Текущее время: 20-Окт 03:57

Часовой пояс: UTC - 1


Вы не можете начинать темы
Вы не можете отвечать на сообщения
Вы не можете редактировать свои сообщения
Вы не можете удалять свои сообщения
Вы не можете голосовать в опросах
Вы не можете прикреплять файлы к сообщениям
Вы не можете скачивать файлы

!ВНИМАНИЕ!
Сайт не предоставляет электронные версии произведений, а занимается лишь коллекционированием и каталогизацией ссылок, присылаемых и публикуемых на форуме нашими читателями. Если вы являетесь правообладателем какого-либо представленного материала и не желаете, чтобы ссылка на него находилась в нашем каталоге, свяжитесь с нами, и мы незамедлительно удалим ее. Файлы для обмена на трекере предоставлены пользователями сайта, и администрация не несет ответственности за их содержание. Просьба не заливать файлы, защищенные авторскими правами, а также файлы нелегального содержания!