Ивановский Торрент трекер
Яндекс.Погода
 

[Цитировать]
HUNTER

Василий Ломаченко - Ромуло Коасича / Vasyl Lomachenko & Romulo Koasicha
Дата/Год выпуска: 07.11.2015
Вид спорта: Бокс
Язык комментариев: польский
Канал: Polsat Sport HD
Описание: 7 ноября в Лас-Вегасе состоялся бой между Василием Ломаченко и Ромулом Коасича.
Оба боксера показали одинаковый вес - 57 кг.
Автор рипа: sergiyko
Доп. информация:
Исходник (Автор dean10): HDTVRemux [TS/H.264/MP2, 1920х1080i (16:9), 25.000 fps]
Рип: деинтерлейсер [25i -> 50p]: QTGMC( Preset="Slow" )
Качество: HDTVRip 720p
Формат: MKV
Видео: H264 1280х720 50fps 5334kbps
Аудио: MP2 48.0 KHz 2.0ch 192kbps

MediaInfo

General
Unique ID : 202441816255422345594997159664839087779 (0x984CE026D03BBB289916F9DA80BCD6A3)
Complete name : E:\Torrents\Sport\Vasyl Lomachenko vs Romulo Koasicha.07-11-2015.HDTVRip.720p.50fps.mkv
Format : Matroska
Format version : Version 4 / Version 2
File size : 1.79 GiB
Duration : 45mn 27s
Overall bit rate : 5 638 Kbps
Movie name : Vasyl Lomachenko vs Romulo Koasicha HDTVRip 720p rip by sergiyko
Encoded date : UTC 2015-11-08 21:01:47
Writing application : mkvmerge v7.7.0 ('Six Voices') 32bit built on Feb 28 2015 23:23:00
Writing library : libebml v1.3.1 + libmatroska v1.4.2
DURATION : 00:45:27.600000000
NUMBER_OF_FRAMES : 113650
NUMBER_OF_BYTES : 65462400
_STATISTICS_WRITING_APP : mkvmerge v7.7.0 ('Six Voices') 32bit built on Feb 28 2015 23:23:00
_STATISTICS_WRITING_DATE_UTC : 2015-11-08 21:01:47
_STATISTICS_TAGS : BPS DURATION NUMBER_OF_FRAMES NUMBER_OF_BYTES
Video
ID : 1
Format : AVC
Format/Info : Advanced Video Codec
Format profile : High@L4.0
Format settings, CABAC : Yes
Format settings, ReFrames : 5 frames
Codec ID : V_MPEG4/ISO/AVC
Duration : 45mn 27s
Bit rate : 5 334 Kbps
Width : 1 280 pixels
Height : 720 pixels
Display aspect ratio : 16:9
Frame rate mode : Constant
Frame rate : 50.000 fps
Color space : YUV
Chroma subsampling : 4:2:0
Bit depth : 8 bits
Scan type : Progressive
Bits/(Pixel*Frame) : 0.116
Stream size : 1.69 GiB (95%)
Title : Vasyl Lomachenko vs Romulo Koasicha HDTVRip 720p rip by sergiyko
Writing library : x264 core 146 r2538 121396c
Encoding settings : cabac=1 / ref=5 / deblock=1:-1:-1 / analyse=0x3:0x133 / me=umh / subme=9 / psy=1 / psy_rd=1.00:0.15 / mixed_ref=1 / me_range=16 / chroma_me=1 / trellis=2 / 8x8dct=1 / cqm=0 / deadzone=21,11 / fast_pskip=1 / chroma_qp_offset=-3 / threads=4 / lookahead_threads=1 / sliced_threads=0 / nr=0 / decimate=1 / interlaced=0 / bluray_compat=0 / constrained_intra=0 / bframes=3 / b_pyramid=2 / b_adapt=2 / b_bias=0 / direct=3 / weightb=1 / open_gop=0 / weightp=2 / keyint=500 / keyint_min=50 / scenecut=40 / intra_refresh=0 / rc_lookahead=50 / rc=crf / mbtree=1 / crf=21.0 / qcomp=0.60 / qpmin=0 / qpmax=69 / qpstep=4 / vbv_maxrate=25000 / vbv_bufsize=31250 / crf_max=0.0 / nal_hrd=none / filler=0 / ip_ratio=1.40 / aq=1:1.00
Language : Polish
Default : Yes
Forced : No
Audio
ID : 2
Format : MPEG Audio
Format version : Version 1
Format profile : Layer 2
Codec ID : A_MPEG/L2
Codec ID/Hint : MP2
Duration : 45mn 27s
Bit rate mode : Constant
Bit rate : 192 Kbps
Channel(s) : 2 channels
Sampling rate : 48.0 KHz
Compression mode : Lossy
Stream size : 62.4 MiB (3%)
Language : Polish
Default : Yes
Forced : No

Продолжительность

00:45:27

Скриншоты

Показать сообщения:    

Текущее время: 21-Сен 22:12

Часовой пояс: UTC - 1


Вы не можете начинать темы
Вы не можете отвечать на сообщения
Вы не можете редактировать свои сообщения
Вы не можете удалять свои сообщения
Вы не можете голосовать в опросах
Вы не можете прикреплять файлы к сообщениям
Вы не можете скачивать файлы

!ВНИМАНИЕ!
Сайт не предоставляет электронные версии произведений, а занимается лишь коллекционированием и каталогизацией ссылок, присылаемых и публикуемых на форуме нашими читателями. Если вы являетесь правообладателем какого-либо представленного материала и не желаете, чтобы ссылка на него находилась в нашем каталоге, свяжитесь с нами, и мы незамедлительно удалим ее. Файлы для обмена на трекере предоставлены пользователями сайта, и администрация не несет ответственности за их содержание. Просьба не заливать файлы, защищенные авторскими правами, а также файлы нелегального содержания!