Ивановский Торрент трекер
Яндекс.Погода
 

[Цитировать]
HUNTER

Василий Ломаченко - Гамальер Родригес / Vasyl Lomachenko vs Gamalier Rodriguez
Дата/Год выпуска: 02.05.2015
Вид спорта: Бокс
Язык комментариев: русский + украинский
Канал: 2+2
Описание: В ночь с субботы на воскресенье, рано утром 3 мая 2015, в Лас-Вегасе (США) состоится пятый поединок украинского боксера полулегкого веса Василия Ломаченко на профессиональном ринге. Его соперник – Гамальер Родригес из Пуэрто-Рико. Букмекеры фаворитом считают украинского боксера: коэффициент на победу "Хай-тека" всего 1,02, тогда как на Родригеса – 13. Этот бой пройдет в андеркарте "поединка года" Мейвезер – Пакьяо.
Рип: Собственный
Качество: TVRip
Формат: MP4
Видео: AVC, 768х576, 4:3, 25.00 кадров/сек, 2712 Кбит/сек
Аудио: AAC, 128 Кбит/сек, 2 канала, стерео, 44100 Гц

Доп. информация

Доп. информация: Общее
Формат : MPEG-4
Профиль формата : Base Media
Идентификатор кодека : isom
Размер файла : 1,02 Гбайт
Режим общего битрейта : Переменный
Общий поток : 2844 Кбит/сек
Дата кодирования : UTC 2015-05-03 04:01:36
Дата пометки : UTC 2015-05-03 04:01:36
Программа кодирования : Lavf56.1.0
Видео
Идентификатор : 1
Формат : AVC
Формат/Информация : Advanced Video Codec
Профиль формата : Baseline@L3.1
Параметр CABAC формата : Нет
Параметр ReFrames формата : 16 кадров
Идентификатор кодека : avc1
Идентификатор кодека/Информация : Advanced Video Coding
Битрейт : 2712 Кбит/сек
Ширина : 768 пикселей
Высота : 576 пикселей
Соотношение сторон : 4:3
Режим частоты кадров : Постоянный
Частота кадров : 25,000 кадров/сек
Цветовое пространство : YUV
Субдискретизация насыщенности : 4:2:0
Битовая глубина : 8 бит
Тип развёртки : Прогрессивная
Бит/(Пиксели*Кадры) : 0.245
Размер потока : 992 Мбайт (95%)
Библиотека кодирования : x264 core 130 r2282 1db4621
Настройки программы : cabac=0 / ref=16 / deblock=1:0:0 / analyse=0x1:0x111 / me=hex / subme=6 / psy=1 / psy_rd=1.00:0.00 / mixed_ref=1 / me_range=16 / chroma_me=1 / trellis=2 / 8x8dct=0 / cqm=0 / deadzone=21,11 / fast_pskip=1 / chroma_qp_offset=-2 / threads=12 / lookahead_threads=2 / sliced_threads=0 / nr=0 / decimate=1 / interlaced=0 / bluray_compat=0 / constrained_intra=0 / bframes=0 / weightp=0 / keyint=250 / keyint_min=4 / scenecut=40 / intra_refresh=0 / rc_lookahead=60 / rc=crf / mbtree=1 / crf=21.0 / qcomp=0.60 / qpmin=0 / qpmax=69 / qpstep=4 / ip_ratio=1.41 / aq=1:1.00
Язык : English
Дата кодирования : UTC 2015-05-03 04:01:36
Дата пометки : UTC 2015-05-03 04:01:36
Аудио
Идентификатор : 2
Формат : AAC
Формат/Информация : Advanced Audio Codec
Профиль формата : LC
Идентификатор кодека : 40
Вид битрейта : Переменный
Битрейт : 128 Кбит/сек
Каналы : 2 канала
Расположение каналов : Front: L R
Частота : 44,1 КГц
Метод сжатия : С потерями
Размер потока : 46,8 Мбайт (5%)
Язык : English
Дата кодирования : UTC 2015-05-03 04:01:36
Дата пометки : UTC 2015-05-03 04:01:36

Продолжительность

51 м.

Скриншоты

Показать сообщения:    

Текущее время: 19-Сен 12:43

Часовой пояс: UTC - 1


Вы не можете начинать темы
Вы не можете отвечать на сообщения
Вы не можете редактировать свои сообщения
Вы не можете удалять свои сообщения
Вы не можете голосовать в опросах
Вы не можете прикреплять файлы к сообщениям
Вы не можете скачивать файлы

!ВНИМАНИЕ!
Сайт не предоставляет электронные версии произведений, а занимается лишь коллекционированием и каталогизацией ссылок, присылаемых и публикуемых на форуме нашими читателями. Если вы являетесь правообладателем какого-либо представленного материала и не желаете, чтобы ссылка на него находилась в нашем каталоге, свяжитесь с нами, и мы незамедлительно удалим ее. Файлы для обмена на трекере предоставлены пользователями сайта, и администрация не несет ответственности за их содержание. Просьба не заливать файлы, защищенные авторскими правами, а также файлы нелегального содержания!