Ивановский Торрент трекер
Яндекс.Погода
 

[Цитировать]
HUNTER

Варвар и гейша / The Barbarian and the Geisha- Год выпуска: 1958
Страна: США
Жанр: приключения, драма
Продолжительность: 01:44:52
Перевод: Авторский (одноголосый закадровый) Сергей Визгунов
Оригинальная аудиодорожка: Английская
Cубтитры: Русские (Антон Каптелов), английские-Режиссер: Джон Хьюстон / John Huston
В ролях: Джон Уэйн, Эйко Андо, Сэм Джаффе, Со Ямамура, Рйюзо Демура, Фуджи Касай, Такеши Кумагаи, Фуюкити Маки-Описание:
История приключений и любви к прекрасной гейше Таунсенда Харриса (Джон Уэйн), американского генерального консула, который в 1856-м году стал первым иностранным дипломатом, прибывшим в Японию…-За Визгунова спасибо cementit, за субтитры спасибо dimmm2v.
| IMDb | Сэмпл-Качество: BDRip 720p (SAiMORNY)
Контейнер: MKV
Видео: x264, 1280x544 (2.35:1), 23.976 fps, 4450 kbps
Аудио 1: Русский AC3 2.0, 48 kHz, 192 kbps
Аудио 2: Английский DTS 2.0, 48 kHz, 1509 kbps
Формат субтитров: softsub (SRT)

Скриншоты


MI
General
Unique ID : 172485298122675185781313533576194964109 (0x81C375C6A1420DFBB6869A2A7AF63A8D)
Complete name : The.Barbarian.and.the.Geisha.1958.720p.BluRay.x264-SAiMORNY.mkv
Format : Matroska
Format version : Version 2
File size : 4.51 GiB
Duration : 1h 44mn
Overall bit rate : 6 154 Kbps
Movie name : The Barbarian and the Geisha / Варвар и гейша (1958) – RuTracker
Encoded date : UTC 2015-02-15 18:02:19
Writing application : mkvmerge v7.5.0 ('Glass Culture') 64bit built on Jan 4 2015 16:48:44
Writing library : libebml v1.3.1 + libmatroska v1.4.2
Attachements : cover.jpg
Video
ID : 1
Format : AVC
Format/Info : Advanced Video Codec
Format profile : High@L3.1
Format settings, CABAC : Yes
Format settings, ReFrames : 5 frames
Codec ID : V_MPEG4/ISO/AVC
Duration : 1h 44mn
Bit rate : 4 450 Kbps
Width : 1 280 pixels
Height : 544 pixels
Display aspect ratio : 2.35:1
Frame rate mode : Constant
Frame rate : 23.976 fps
Color space : YUV
Chroma subsampling : 4:2:0
Bit depth : 8 bits
Scan type : Progressive
Bits/(Pixel*Frame) : 0.267
Stream size : 3.17 GiB (70%)
Title : The.Barbarian.and.the.Geisha.1958.720p.BluRay.x264-SAiMORNY
Writing library : x264 core 118 r2085 8a62835
Encoding settings : cabac=1 / ref=5 / deblock=1:0:0 / analyse=0x3:0x133 / me=umh / subme=7 / psy=1 / psy_rd=1.00:0.00 / mixed_ref=1 / me_range=16 / chroma_me=1 / trellis=1 / 8x8dct=1 / cqm=0 / deadzone=21,11 / fast_pskip=0 / chroma_qp_offset=-2 / threads=6 / sliced_threads=0 / nr=0 / decimate=1 / interlaced=0 / bluray_compat=0 / constrained_intra=0 / bframes=3 / b_pyramid=2 / b_adapt=2 / b_bias=0 / direct=3 / weightb=1 / open_gop=0 / weightp=2 / keyint=250 / keyint_min=23 / scenecut=40 / intra_refresh=0 / rc_lookahead=50 / rc=2pass / mbtree=1 / bitrate=4450 / ratetol=1.0 / qcomp=0.60 / qpmin=0 / qpmax=69 / qpstep=4 / cplxblur=20.0 / qblur=0.5 / ip_ratio=1.40 / aq=1:1.00
Language : English
Default : Yes
Forced : No
Audio #1
ID : 2
Format : AC-3
Format/Info : Audio Coding 3
Mode extension : CM (complete main)
Format settings, Endianness : Big
Codec ID : A_AC3
Duration : 1h 44mn
Bit rate mode : Constant
Bit rate : 192 Kbps
Channel(s) : 2 channels
Channel positions : Front: L R
Sampling rate : 48.0 KHz
Bit depth : 16 bits
Compression mode : Lossy
Stream size : 144 MiB (3%)
Title : AVO – С.Визгунов
Language : Russian
Default : Yes
Forced : No
Audio #2
ID : 3
Format : DTS
Format/Info : Digital Theater Systems
Mode : 16
Format settings, Endianness : Big
Codec ID : A_DTS
Duration : 1h 44mn
Bit rate mode : Constant
Bit rate : 1 509 Kbps
Channel(s) : 2 channels
Channel positions : Front: L R
Sampling rate : 48.0 KHz
Bit depth : 24 bits
Compression mode : Lossy
Stream size : 1.11 GiB (25%)
Title : Original
Language : English
Default : No
Forced : No
Text #1
ID : 4
Format : UTF-8
Codec ID : S_TEXT/UTF8
Codec ID/Info : UTF-8 Plain Text
Title : А.Каптелов
Language : Russian
Default : No
Forced : No
Text #2
ID : 5
Format : UTF-8
Codec ID : S_TEXT/UTF8
Codec ID/Info : UTF-8 Plain Text
Language : English
Default : No
Forced : No


Показать сообщения:    

Текущее время: 15-Дек 12:18

Часовой пояс: UTC ± 0


Вы не можете начинать темы
Вы не можете отвечать на сообщения
Вы не можете редактировать свои сообщения
Вы не можете удалять свои сообщения
Вы не можете голосовать в опросах
Вы не можете прикреплять файлы к сообщениям
Вы не можете скачивать файлы

!ВНИМАНИЕ!
Сайт не предоставляет электронные версии произведений, а занимается лишь коллекционированием и каталогизацией ссылок, присылаемых и публикуемых на форуме нашими читателями. Если вы являетесь правообладателем какого-либо представленного материала и не желаете, чтобы ссылка на него находилась в нашем каталоге, свяжитесь с нами, и мы незамедлительно удалим ее. Файлы для обмена на трекере предоставлены пользователями сайта, и администрация не несет ответственности за их содержание. Просьба не заливать файлы, защищенные авторскими правами, а также файлы нелегального содержания!