Важное объявление!
У Нас Все раздачи мультитрекерные, при нуле пиров в релизах, можете смело вставать на закачку!
Статистика раздачи
Размер:     |    Зарегистрирован:     |    Скачан:     |   
Нет
 
     
 
 
Автор Сообщение

димитри37

Стаж:
4 года 5 месяцев
Сообщений:
1236

Репутация: 127

[+] [-]
Вне форума [Профиль] [ЛС]

Ванечка
Жанр: мелодрама
Год выпуска: 2007
Продолжительность: 01:43:12
Режиссёр: Елена Николаева
В ролях: Елена Великанова, Андрей Панин, Максим Галкин, Евдокия Германова, Сергей Баталов, Нина Русланова, Валерий Баринов, Алиса Гребенщикова, Сергей Юшкевич, Василий Мищенко, Иван Рудаков, Армен Джигарханян, Ольга Дроздова, Михаил Солодко, Алексей Агрызков, Эдуард Черношкур, Илюша Глушков, Миша Хороненко, Татьяна Миткова, Юлия Яновская, Борис Тенин, Екатерина Хлыстова, Ксения Радченко, Нестан Бадуашвили, Максим Костромыкин, Татьяна Мухина, Александр Карамнов, Анатолий Житник, Алексей Гнилицкий, Вероника Агапова
Описание: 1998 год, время перемен. Но главная героиня как будто не замечает того, что происходит вокруг. Ее жизнь резко изменилась – у нее появился Ванечка. Наивная красавица Надя приезжает в Москву поступать во ВГИК. Но происходит страшное: единственные московские знакомые Нади погибают в автокатастрофе, и главная героиня остается в чужом городе с их ребенком, сиротой Ванечкой на руках. Малыш станет самым близким для Нади человеком...
Доп. информация: По рассказу Эдуарда Тополя "Сумасбродка".
Сценарий: Юлия Тополь
Оператор: Арчил Ахвледиани
Художник: Владимир Трапезников
Композитор: Юрий Потеенко
Награды: специальный приз президента кинофестиваля имени Андрея Тарковского «Зеркало» (2007); «Большая золотая ладья» на XV фестивале российского кино «Окно в Европу (Выборгский счет)» (2007); приз за лучшую женскую роль (Елена Великанова) на II Всероссийском кинофестивале для подростков и юношества "…надцатилетние"» (2007)
Ограничения на просмотр: зрителям, достигшим 14 лет

Качество видео: DVDRip
Формат видео: AVI
Видео: 704x384 (1.83:1), 25 fps, XviD 65, 1840 kbps avg, 0.27 bit/pixel
Аудио: 48 kHz, AC3 Dolby Digital, 2/0 (L,R) ch, 192 kbps

MediaInfo

Полное имя : Vanechka.avi
Формат : AVI
Формат/Информация : Audio Video Interleave
Размер файла : 1,47 Гбайт
Продолжительность : 1 ч. 43 м.
Общий поток : 2042 Кбит/сек
Программа кодирования : VirtualDubMod 1.5.10.3 (build 2550/release)
Библиотека кодирования : VirtualDubMod build 2550/release
Видео
Идентификатор : 0
Формат : MPEG-4 Visual
Профиль формата : Advanced Simple@L5
Параметр BVOP формата : 2
Параметр QPel формата : Нет
Параметр GMC формата : Без точки перехода
Параметр матрицы формата : Выборочная
Идентификатор кодека : XVID
Идентификатор кодека/Подсказка : XviD
Продолжительность : 1 ч. 43 м.
Битрейт : 1840 Кбит/сек
Ширина : 704 пикселя
Высота : 384 пикселя
Соотношение сторон : 1,85:1
Частота кадров : 25,000 кадров/сек
Цветовое пространство : YUV
Субдискретизация насыщенности : 4:2:0
Битовая глубина : 8 бит
Тип развёртки : Прогрессивная
Метод сжатия : С потерями
Бит/(Пиксели*Кадры) : 0.272
Размер потока : 1,33 Гбайт (90%)
Библиотека кодирования : XviD 65
Аудио
Идентификатор : 1
Формат : AC-3
Формат/Информация : Audio Coding 3
Расширение режима : CM (complete main)
Параметр Endianness формата : Big
Идентификатор кодека : 2000
Продолжительность : 1 ч. 43 м.
Вид битрейта : Постоянный
Битрейт : 192 Кбит/сек
Каналы : 2 канала
Расположение каналов : Front: L R
Частота : 48,0 КГц
Битовая глубина : 16 бит
Метод сжатия : С потерями
Размер потока : 142 Мбайт (9%)
Выравнивание : Разделение по промежуткам
Продолжительность промежутка : 40 мс. (1,00 видеокадр)
Время предзагрузки промежутка : 500 мс.

Скриншоты c названием фильма и годом выпуска

Скриншоты

Сравнение

http://rutracker.org/forum/viewtopic.php?t=528957 - с конкурентом
http://screenshotcomparison.com/comparison/21632/ + перекроп, размер файла не соответствует тех. требованиям, звук МР3
Показать сообщения:    

Текущее время: Сегодня 19:29

Часовой пояс: GMT



Вы не можете начинать темы
Вы не можете отвечать на сообщения
Вы не можете редактировать свои сообщения
Вы не можете удалять свои сообщения
Вы не можете голосовать в опросах
Вы не можете прикреплять файлы к сообщениям
Вы не можете скачивать файлы