Важное объявление!
У Нас Все раздачи мультитрекерные, при нуле пиров в релизах, можете смело вставать на закачку!
 
Автор Сообщение

HUNTER

Стаж:
4 года 9 месяцев
Сообщений:
65021

Репутация: 101

[+] [-]
Вне форума [Профиль] [ЛС]

Вампир в Венеции / Носферату в Венеции / Nosferatu a Venezia / Vampire in Venice
Страна: Италия
Студия: Reteitalia / Scena Film
Жанр: драма, мистика, готика
Год выпуска: 1988
Продолжительность: 01:31:55
Перевод: Одноголосый закадровый Переводчик не опознан
Cубтитры: нет
Оригинальная аудиодорожка: итальянский
Режиссер: Аугусто Каминито / Augusto Caminito
В ролях: Клаус Кински, Кристофер Пламмер, Дональд Плезенс, Барбара Де Росси
Описание: Профессор Каталано-эксперт по вампиризму, приезжает в Венецию на поиски великого вампира Носферату. Он считает, что вампир устал от своего бессмертия и ищет способ умереть. Хелиета, дочь венецианского купца, у которого останавливается профессор Каталано, рассказывает ему, что пустой гроб, находящийся в подвале их дома, принадлежит именно Носферату. Тем временем великий вампир восстает из своей могилы в Румынии и приезжает в Венецию. Он знакомится с Хелиетой и влюбляется в девушку…
У фильм многострадальная история создания. Продюсер Августо Каминито сначала нанял режиссера Маурицио Люсиди, который снял несколько массовых сцен в Венеции еще до завершения написания сценарий. Но продюсер решил, что ему нужен другой режиссер. Он увольняет Люсиди, платит ему полный гонорар и нанимает Паскуаля Скуитьери переписать сценарий и снять картину. Однако его сценарий показался Каминито слишком дорогостоящим. Он увольняет Скуитьери и также платит ему полную зарплату. Съемки так сильно затягиваются, что итальянское телевидение, также продюсировавшее фильм, начинает заметно нервничать. Тогда Каминито нанимает режиссера-ветерана Марио Кайано, и съемки начинаются. Но в первый же день работы Клаус Кински вдрызг ругается с Кайано и отказывается с ним работать. Кайано также приходится уволить, заплатив ему полный гонорар. Каминито больше не мог платить четвертому режиссеру и сам сел в режиссерское кресло. Но так как он практически не имел режиссерского опыта, то ему помогал Луиджи Коззи, а несколько сцен Кински снял сам. По замыслу продюсеров фильма Кински должен был играть в образе своего персонажа Носферату из картины Вернера Херцога «Носферату-призрак ночи» (1979): лысым, с бледно-белой кожей и выпирающими зубами. Но актер прибыл на съемочную площадку с длинными волосами и отказался накладывать болезненный грим, а тем более вставлять искусственные клыки. Продюсерам пришлось смириться с требованиями кинозвезды. Музыку к фильму также написал Вангелис.
Доп. информация: Руская звуковая дорожка взята с этой раздачи http://rutracker.org/forum/viewtopic.php?t=4842004 автору огромное спасибо.
При пересборе двд были использованы программы:
PgcDemux - разделение компонентов диска на файлы
Muxman - мультиплексирование и авторинг DVD
VobBlanker - реавторинг DVD

Скрин завершения проекта

Бонусы: Трейлер
Сэмпл: http://sendfile.su/1056145
Тип релиза: DVD5 (Custom)
Контейнер: DVD-Video
Видео: PAL 4:3 (720x576) VBR
Аудио: Russian (Dolby AC3, 192 Кбит/сек, 2 ch)
Аудио 2: Deutsch (Dolby AC3, 128 Кбит/сек, 1 ch)
Аудио 3: English (Dolby AC3, 128 Кбит/сек, 1 ch)
Аудио 4: Italiano (Dolby AC3, 160 Кбит/сек, 1 ch)

DVDInfo

Size: 3.94 Gb ( 4 135 816 KBytes ) - DVD-5
Enabled regions: 1, 2, 3, 4, 5, 6, 7, 8
VTS_01 :
Play Length: 01:29:37+00:02:06+00:00:12
Video: PAL 4:3 (720x576) VBR
Audio:
Russian (Dolby AC3, 2 ch)
Deutsch (Dolby AC3, 1 ch)
Deutsch (Dolby AC3, 1 ch)
Italiano (Dolby AC3, 1 ch)
Menu Video:
PAL 4:3 (720x576) VBR
Menu English Language Unit :
Root Menu
Chapter (PTT) Menu

MediaInfo

Общее
Полное имя : I:\Nosferatu in Venice_1988\VIDEO_TS\VTS_01_1.VOB
Формат : MPEG-PS
Размер файла : 1024 Мбайт
Продолжительность : 23 м.
Режим общего битрейта : Переменный
Общий поток : 6061 Кбит/сек
Видео
Идентификатор : 224 (0xE0)
Формат : MPEG Video
Версия формата : Version 2
Профиль формата : Main@Main
Параметр BVOP формата : Да
Параметр матрицы формата : Выборочная
Продолжительность : 23 м.
Вид битрейта : Переменный
Битрейт : 5332 Кбит/сек
Максимальный битрейт : 5500 Кбит/сек
Ширина : 720 пикселей
Высота : 576 пикселей
Соотношение сторон : 4:3
Частота кадров : 25,000 кадров/сек
Стандарт вещания : PAL
Цветовое пространство : YUV
Субдискретизация насыщенности : 4:2:0
Битовая глубина : 8 бит
Тип развёртки : Чересстрочная
Порядок развёртки : Верхнее поле первое
Метод сжатия : С потерями
Бит/(Пиксели*Кадры) : 0.514
Размер потока : 901 Мбайт (88%)
Аудио #1
Идентификатор : 189 (0xBD)-128 (0x80)
Формат : AC-3
Формат/Информация : Audio Coding 3
Расширение режима : CM (complete main)
Параметр Endianness формата : Big
Режим смешивания : DVD-Video
Продолжительность : 23 м.
Вид битрейта : Постоянный
Битрейт : 192 Кбит/сек
Каналы : 2 канала
Расположение каналов : Front: L R
Частота : 48,0 КГц
Битовая глубина : 16 бит
Метод сжатия : С потерями
Задержка видео : -80 мс.
Размер потока : 32,4 Мбайт (3%)
Аудио #2
Идентификатор : 189 (0xBD)-129 (0x81)
Формат : AC-3
Формат/Информация : Audio Coding 3
Расширение режима : CM (complete main)
Параметр Endianness формата : Big
Режим смешивания : DVD-Video
Продолжительность : 23 м.
Вид битрейта : Постоянный
Битрейт : 128 Кбит/сек
Каналы : 1 канал
Расположение каналов : Front: C
Частота : 48,0 КГц
Битовая глубина : 16 бит
Метод сжатия : С потерями
Задержка видео : -80 мс.
Размер потока : 21,6 Мбайт (2%)
Аудио #3
Идентификатор : 189 (0xBD)-130 (0x82)
Формат : AC-3
Формат/Информация : Audio Coding 3
Расширение режима : CM (complete main)
Параметр Endianness формата : Big
Режим смешивания : DVD-Video
Продолжительность : 23 м.
Вид битрейта : Постоянный
Битрейт : 128 Кбит/сек
Каналы : 1 канал
Расположение каналов : Front: C
Частота : 48,0 КГц
Битовая глубина : 16 бит
Метод сжатия : С потерями
Задержка видео : -80 мс.
Размер потока : 21,6 Мбайт (2%)
Аудио #4
Идентификатор : 189 (0xBD)-131 (0x83)
Формат : AC-3
Формат/Информация : Audio Coding 3
Расширение режима : CM (complete main)
Параметр Endianness формата : Big
Режим смешивания : DVD-Video
Продолжительность : 23 м.
Вид битрейта : Постоянный
Битрейт : 160 Кбит/сек
Каналы : 1 канал
Расположение каналов : Front: C
Частота : 48,0 КГц
Битовая глубина : 16 бит
Метод сжатия : С потерями
Задержка видео : -80 мс.
Размер потока : 27,0 Мбайт (3%)
Меню

Постеры

Скриншоты меню


_________________
Показать сообщения:    

Текущее время: Сегодня 19:50

Часовой пояс: GMT



Вы не можете начинать темы
Вы не можете отвечать на сообщения
Вы не можете редактировать свои сообщения
Вы не можете удалять свои сообщения
Вы не можете голосовать в опросах
Вы не можете прикреплять файлы к сообщениям
Вы не можете скачивать файлы