Важное объявление!
У Нас Все раздачи мультитрекерные, при нуле пиров в релизах, можете смело вставать на закачку!
Статистика раздачи
Размер:     |    Зарегистрирован:     |    Скачан:     |   
Нет
 
     
 
 
Автор Сообщение

HUNTER

Стаж:
5 лет 1 месяц
Сообщений:
68439

Репутация: 101

[+] [-]
Вне форума [Профиль] [ЛС]

Вальмон / Valmont-
Страна: Франция, США
Жанр: драма, мелодрама
Год выпуска: 1989
Продолжительность: 2:11:04-Перевод: Профессиональный (многоголосый закадровый) R5, СР Диджитал
Перевод 2: Профессиональный (многоголосый закадровый) "Селена интернешнл" по заказу "ОРТ-видео"
Перевод 3: Авторский (одноголосый закадровый) Василий Горчаков
Cубтитры: русские, английские
Оригинальная аудиодорожка: английский-Режиссер: Милош Форман / Milos Forman
В ролях: Колин Фёрт, Аннетт Бенинг, Мег Тилли, Файруза Балк, Шан Филлипс, Джеффри Джонс, Генри Томас, Фабия Дрейк, Т.П. МакКенна, Айла Блэр
Описание: Экранизация романа Шодерло де Лакло «Опасные связи».
Светская львица маркиза де Мертей однажды узнает, что её любовник Жеркур, не сказав ей ни слова, планирует жениться на юной Сесиль де Воланж. Желая отомстить ему, Мертей уговаривает своего близкого знакомого виконта де Вальмона совратить девушку. Тот поначалу отказывается, заявляя, что влюблен в мадам де Турвель, бережно хранящую верность мужу. Маркиза предлагает Вальмону пари: если он добьется своего с мадам де Турвель, то она отдастся ему; если же нет — то виконт должен будет отправиться в монастырь и покаяться.- -Доп. информация: Рип от DON из сети, netload.
Сравнение кадров DON vs AMIABLE: http://screenshotcomparison.com/comparison/57426/
Из рипа убрана английская стерео-дорожка и добавлены:
- 6Ch английская и русская дорожки (спасибо garik27), подогнаны без перекодирования, выставлен delay.
- 2ch MVO ОРТ Селена интернешнл (спасибо stuftwert)
- 2Ch AVO Василий Горчаков (спасибо _int_)
Две 2Ch дорожки закодированы в Sonic Foundry Soft Encode.
Настройки кодирования:

AVO


MVO


Добавлены английские и русские субтитры (спасибо shellgen)
В русских субтитрах исправлены слипшиеся слова.
В английских субтитрах исправлен рассинхрон во второй половине фильма и добавлены несколько пропущенных строк в середине.
Чаптеры уже были в рипе.-Сэмпл: sendspace, ~72.26 Mb, ~1 минута
Тип релиза: BDRip 720p (Valmont 1989 720p BluRay DD2.0 x264-DON)
Контейнер: MKV
Видео: MPEG-4 AVC / 1280x534 / 25 fps / 2,40:1 / 7 826 Kbps / crf 16.8 / High Profile 4.1
Аудио 1: Russian MVO AC3 / 5.1 / 48 kHz / 448 kbps |R5, СР Диджитал|
Аудио 2: Russian MVO AC3 / 2.0 / 48 kHz / 192 kbps |"Селена интернешнл" по заказу "ОРТ-видео"|
Аудио 3: Russian AVO AC3 / 2.0 / 48 kHz / 192 kbps |Василий Горчаков|
Аудио 4: English AC3 / 5.1 / 48 kHz / 448 kbps |Original|
Субтитры 1: Russian, softsub (SRT)
Субтитры 2: English, softsub (SRT)

MediaInfo

General
Unique ID : 170169596371936040300775198291996958382 (0x800578DD5C6787978CF90CE01B27DEAE)
Complete name : Valmont.1989.BDRip.720p.x264-DON.mkv
Format : Matroska
Format version : Version 4 / Version 2
File size : 8.51 GiB
Duration : 2h 11mn
Overall bit rate : 9 291 Kbps
Encoded date : UTC 2014-01-13 16:23:52
Writing application : mkvmerge v6.5.0 ('Isn't she lovely') built on Oct 20 2013 12:50:05
Writing library : libebml v1.3.0 + libmatroska v1.4.1
Video
ID : 1
Format : AVC
Format/Info : Advanced Video Codec
Format profile : High@L4.1
Format settings, CABAC : Yes
Format settings, ReFrames : 12 frames
Codec ID : V_MPEG4/ISO/AVC
Duration : 2h 11mn
Bit rate : 7 826 Kbps
Width : 1 280 pixels
Height : 534 pixels
Display aspect ratio : 2.40:1
Frame rate mode : Constant
Frame rate : 25.000 fps
Color space : YUV
Chroma subsampling : 4:2:0
Bit depth : 8 bits
Scan type : Progressive
Bits/(Pixel*Frame) : 0.458
Stream size : 7.17 GiB (84%)
Title : Valmont (Milos Forman) [1989] - [1280x534 @ 25fps ~7826 kbps] x264-DON
Writing library : x264 core 120 r2164+656 2ff844c
Encoding settings : cabac=1 / ref=12 / deblock=1:-3:-3 / analyse=0x3:0x133 / me=umh / subme=10 / psy=1 / fade_compensate=0.00 / psy_rd=0.90:0.03 / mixed_ref=1 / me_range=32 / chroma_me=1 / trellis=2 / 8x8dct=1 / cqm=0 / deadzone=21,11 / fast_pskip=0 / chroma_qp_offset=-3 / threads=3 / sliced_threads=0 / nr=0 / decimate=0 / interlaced=0 / bluray_compat=0 / constrained_intra=0 / fgo=0 / bframes=7 / b_pyramid=2 / b_adapt=2 / b_bias=0 / direct=3 / weightb=1 / open_gop=0 / weightp=2 / keyint=250 / keyint_min=25 / scenecut=40 / intra_refresh=0 / rc=crf / mbtree=0 / crf=16.8 / qcomp=0.60 / qpmin=0 / qpmax=69 / qpstep=4 / ip_ratio=1.35 / pb_ratio=1.25 / aq=3:0.85
Language : English
Default : Yes
Forced : No
Audio #1
ID : 2
Format : AC-3
Format/Info : Audio Coding 3
Mode extension : CM (complete main)
Format settings, Endianness : Big
Codec ID : A_AC3
Duration : 2h 11mn
Bit rate mode : Constant
Bit rate : 448 Kbps
Channel(s) : 6 channels
Channel positions : Front: L C R, Side: L R, LFE
Sampling rate : 48.0 KHz
Bit depth : 16 bits
Compression mode : Lossy
Stream size : 420 MiB (5%)
Title : MVO (R5, CP) [AC3 6Ch 448 kbps]
Language : Russian
Default : Yes
Forced : No
Audio #2
ID : 3
Format : AC-3
Format/Info : Audio Coding 3
Mode extension : CM (complete main)
Format settings, Endianness : Big
Codec ID : A_AC3
Duration : 2h 11mn
Bit rate mode : Constant
Bit rate : 192 Kbps
Channel(s) : 2 channels
Channel positions : Front: L R
Sampling rate : 48.0 KHz
Bit depth : 16 bits
Compression mode : Lossy
Stream size : 180 MiB (2%)
Title : MVO (ОРТ, Селена интернешнл) [AC3 2Ch 192 kbps]
Language : Russian
Default : No
Forced : No
Audio #3
ID : 4
Format : AC-3
Format/Info : Audio Coding 3
Mode extension : CM (complete main)
Format settings, Endianness : Big
Codec ID : A_AC3
Duration : 2h 11mn
Bit rate mode : Constant
Bit rate : 192 Kbps
Channel(s) : 2 channels
Channel positions : Front: L R
Sampling rate : 48.0 KHz
Bit depth : 16 bits
Compression mode : Lossy
Stream size : 180 MiB (2%)
Title : AVO (Василий Горчаков) [AC3 2Ch 192 kbps]
Language : Russian
Default : No
Forced : No
Audio #4
ID : 5
Format : AC-3
Format/Info : Audio Coding 3
Mode extension : CM (complete main)
Format settings, Endianness : Big
Codec ID : A_AC3
Duration : 2h 11mn
Bit rate mode : Constant
Bit rate : 448 Kbps
Channel(s) : 6 channels
Channel positions : Front: L C R, Side: L R, LFE
Sampling rate : 48.0 KHz
Bit depth : 16 bits
Compression mode : Lossy
Stream size : 420 MiB (5%)
Title : Original [AC3 6Ch 448 kbps]
Language : English
Default : No
Forced : No
Text #1
ID : 6
Format : UTF-8
Codec ID : S_TEXT/UTF8
Codec ID/Info : UTF-8 Plain Text
Title : Полные [SRT]
Language : Russian
Default : No
Forced : No
Text #2
ID : 7
Format : UTF-8
Codec ID : S_TEXT/UTF8
Codec ID/Info : UTF-8 Plain Text
Title : Full [SRT]
Language : English
Default : No
Forced : No
Menu
00:00:00.000 : :00:00:00.000
00:10:11.080 : :00:10:11.080
00:21:11.600 : :00:21:11.600
00:31:04.400 : :00:31:04.400
00:40:46.760 : :00:40:46.760
00:50:45.560 : :00:50:45.560
01:01:14.000 : :01:01:14.000
01:10:28.240 : :01:10:28.240
01:23:35.400 : :01:23:35.400
01:28:35.040 : :01:28:35.040
01:42:30.760 : :01:42:30.760
01:58:17.680 : :01:58:17.680

Скриншоты





_________________
Показать сообщения:    

Текущее время: Сегодня 17:01

Часовой пояс: GMT



Вы не можете начинать темы
Вы не можете отвечать на сообщения
Вы не можете редактировать свои сообщения
Вы не можете удалять свои сообщения
Вы не можете голосовать в опросах
Вы не можете прикреплять файлы к сообщениям
Вы не можете скачивать файлы