Ивановский Торрент трекер
Яндекс.Погода
 

[Цитировать]
HUNTER

Вадим Шлахтер | Идеальные отношения [2013] WEB-DLRip
Страна: Россия
Тематика: саморазвитие, видео-обучение
Тип раздаваемого материала: Видеоурок
Продолжительность: 24:33:15
Год выпуска: 2013
Язык: Русский
Перевод: Не требуется
Качество: WEBRip
Формат: MP4
Видео кодек: MPEG2
Аудио кодек: AAC
Видео: 1366 x 768
Поверьте – совершенно не важно сколько вам лет, кем были ваши родители и сколько сейчас денег у вас в кармане.
Если вы до сих пор один или одна, то с вами что-то СИЛЬНО НЕ ТАК.
Особенно, если вам больше 30.
Большое количество негативных отзывов на предыдущую раздачу Шлахтера подтолкнуло меня к мысли выложить еще один "платный" курс "Идеальные отношения".
В раздаче есть два курса вебинаров "Идеальные отношения", проводимых с двумя разными группами, и помимо них, отдельные материалы, среди которых:
- Почему одних любят, а на других женятся
- Гендерная эффективность
- Идеальные отношения миф или реальность
- Брачные игры
- Как стать плохим парнем

Программа тренинга:


Что вы получите от прохождения этого тренинга, если вы мужчина:
Вы сможете познакомиться с любой понравившейся вам девушкой
Вы узнаете – где же найти подходящую для вас девушку
Построите отношения, о которых другие только мечтают
Вы будете избегать и мирно улаживать ссоры
Вы станете для женщины номер 1. И она даже представить себя не сможет с кем либо другим
Универсальные законы отношений, о которых не догадываются 95% мужчин
Типичные ошибки, из-за которых рушится большинство отношений
Как стать предмет обожания от вашей женщины
Что нужно делать, чтобы жена перестала «пилить» вас
Сделаете из своей женщины королеву
Программа для мужчин:
Проработка комплексов в отношении женщин.
Проработка и избавление от страхов в отношении женщин.
Анализ своего поведения в отношении женщин.
Анализ своего восприятия женщин
Коррекция своего отношения к самому себе.
Коррекция своего отношения к женщине.
Коррекция состояния психики.
Проработка стереотипов и прошлых неудач.
Управление своими эмоциями.
Коррекция имиджа и поведения.
Сравнение своего и женского восприятия. Имидж "для себя" и для того, чтобы нравиться женщинам.
Контроль поведения.
Ролевая игра, перестройка поведения.
Освоение коммуникаций с женщинами.
Невербальные сигналы. Улыбка, взгляд, жесты.
Вербальные сигналы. Голос и слова. Смыслы.
Вызов доверия. Или научи себя быть таким, чтобы женщины тебе доверялись.
Развитие чувства юмора.
Шутки и смех. Как шутить, как смеяться. Улыбка.
Умение поддерживать беседу.
Программа для женщин:
Правильное выстраивание отношений с мужем
Как стать единственной и не заменимой
Технологии мягкого подчинения
Женская авторитарность сильные слабые стороны
Выстраивание отношений с друзьями и родственниками мужа
Отношение к его "бывшеньким"
Адюльтер (измена) правильная модель поведения, профилактика предотвращение, нейтрализация
Создание психологического климата в семье, контроль ситуации
Длинный и короткий поводок, плюсы и минусы
Дети, формирование правильного отношения ко всему
Отношение к увлечениям мужа
Совмещение семейной жизни и карьеры
Поведение, если муж представитель другой культуры
Как и где найти мужа
Как его не потерять
Эффективные модели поведения женщины с мужчиной
Технологии и методы
Основы мужской психологии
Вы глазами мужчин
Образ идеальной невесты
Создание образа женщины, которую мужчине хотелось бы видеть женой
Что вы получите от прохождения этого тренинга, если вы женщина:
Инструкции для привлечения мужчины вашей мечты мечты.
Проверенные и опробованные методы для выхода замуж в минимальные сроки
Что нужно знать, чтобы ваш мужчина НИКОГДА НЕ ИЗМЕНЯЛ
Особые методы влияния, делающие из последнего неудачника успешного мужчину
Все необходимые ключики для контроля над мужчиной
Жизнь, полную любви, бурных эмоций и морем страсти.
Поймете – что нужно мужчине и как ему это дать.
Сможете доносить до мужчины, чего вы хотите от него
Узнаете, что делать, чтобы ваши отношения стали «как в самом начале»

От релизера:

Сам смотрю и другим советую смотреть материалы данного автора критично. Не во всем с ним согласен.
Вебинары работают: повысился успех у женщин потому, что я увидел и исправил кучу своих косяков.
Результаты
- более эффективный внешний вид и поведение.
- эффективное поведение на свидании/собеседовании.
- зная методы подчинения, я распознаю попытки и не даю себя "поиметь". Например, понизить мою самооценку.
- поставновка долгосрочных/красткосрочных целей - большая эффективность;
- перестал смотреть Тельавидение;
- распрямилась осанка;
... и т.д.
До тренинга, Я все время спрашивал себя и не знал ответы на следующие вопросы:
Почему я все делал как мне говорили: хорошо учился, честно трудился, следовал правилам, и мало чего достиг и заработал?
Почему чем лучше учишься в школе и ВУЗе, тем ниже зарплата?
Почему тот, кто рано встает, тот мало зарабатывает?
А ЧТО ДАЛИ МНЕ КРИТИКИ ШЛАХТЕРА?

MediaInfo:

Format : MPEG-4
Format profile : Base Media
Codec ID : isom
File size : 386 MiB
Duration : 1h 27mn
Overall bit rate mode : Variable
Overall bit rate : 614 Kbps
Writing application : Lavf54.6.100
Video
ID : 1
Format : AVC
Format/Info : Advanced Video Codec
Format profile : High@L4.0
Format settings, CABAC : Yes
Format settings, ReFrames : 5 frames
Format settings, GOP : M=6, N=7
Codec ID : avc1
Codec ID/Info : Advanced Video Coding
Duration : 1h 27mn
Bit rate : 572 Kbps
Nominal bit rate : 4 194 Kbps
Width : 1 366 pixels
Height : 768 pixels
Display aspect ratio : 16:9
Frame rate mode : Constant
Frame rate : 15.000 fps
Color space : YUV
Chroma subsampling : 4:2:0
Bit depth : 8 bits
Scan type : Progressive
Bits/(Pixel*Frame) : 0.036
Stream size : 360 MiB (93%)
Writing library : x264 core 129 r2245 bc13772
Encoding settings : cabac=1 / ref=5 / deblock=1:0:0 / analyse=0x3:0x113 / me=dia / subme=8 / psy=1 / psy_rd=1.00:0.00 / mixed_ref=1 / me_range=4 / chroma_me=1 / trellis=1 / 8x8dct=1 / cqm=0 / deadzone=21,11 / fast_pskip=1 / chroma_qp_offset=-2 / threads=3 / lookahead_threads=1 / sliced_threads=0 / nr=0 / decimate=1 / interlaced=0 / bluray_compat=0 / constrained_intra=0 / bframes=6 / b_pyramid=2 / b_adapt=0 / b_bias=0 / direct=1 / weightb=1 / open_gop=0 / weightp=2 / keyint=7 / keyint_min=4 / scenecut=0 / intra_refresh=0 / rc_lookahead=7 / rc=abr / mbtree=1 / bitrate=4194 / ratetol=1.0 / qcomp=0.60 / qpmin=30 / qpmax=36 / qpstep=4 / ip_ratio=1.40 / aq=1:1.00
Audio
ID : 2
Format : AAC
Format/Info : Advanced Audio Codec
Format profile : LC
Codec ID : 40
Duration : 1h 27mn
Bit rate mode : Variable
Bit rate : 38.0 Kbps
Maximum bit rate : 128 Kbps
Channel(s) : 1 channel
Channel positions : Front: C
Sampling rate : 22.05 KHz
Compression mode : Lossy
Delay relative to video : 133ms
Stream size : 23.9 MiB (6%)

Скриншоты:

Показать сообщения:    

Текущее время: 18-Окт 04:33

Часовой пояс: UTC - 1


Вы не можете начинать темы
Вы не можете отвечать на сообщения
Вы не можете редактировать свои сообщения
Вы не можете удалять свои сообщения
Вы не можете голосовать в опросах
Вы не можете прикреплять файлы к сообщениям
Вы не можете скачивать файлы

!ВНИМАНИЕ!
Сайт не предоставляет электронные версии произведений, а занимается лишь коллекционированием и каталогизацией ссылок, присылаемых и публикуемых на форуме нашими читателями. Если вы являетесь правообладателем какого-либо представленного материала и не желаете, чтобы ссылка на него находилась в нашем каталоге, свяжитесь с нами, и мы незамедлительно удалим ее. Файлы для обмена на трекере предоставлены пользователями сайта, и администрация не несет ответственности за их содержание. Просьба не заливать файлы, защищенные авторскими правами, а также файлы нелегального содержания!