Важное объявление!
У Нас Все раздачи мультитрекерные, при нуле пиров в релизах, можете смело вставать на закачку!
Статистика раздачи
Размер:     |    Зарегистрирован:     |    Скачан:     |   
Нет
 
     
 
 
Автор Сообщение

HUNTER

Стаж:
5 лет
Сообщений:
67979

Репутация: 101

[+] [-]
Вне форума [Профиль] [ЛС]


Барашек Шон | Shaun the Sheep Movie
«Бе-е-е-ежим в кино!»
Оригинальный видеоряд
-
Страна: Великобритания, Франция
Жанр: Комедия, приключения, семейный
Продолжительность: 1:24:58
Год выпуска: 2015
Перевод: Не требуется
Русские субтитры: нет
Режиссёр: Марк Бертон / Mark Burton
Роли озвучивали: Джастин Флетчер, Джон Шпаркс, Омид Джалили, Ричард Веббер, Кейт Харбор, Тим Хэндс, Энди Найман, Саймон Гринхолл, Эмма Тейт, Джек Полсон-ОписаниеМирная жизнь маленькой овцефермы оказывается под угрозой, когда в результате очередной проказы неутомимого Барашка Шона хозяин фермы попадает в большой город. Вдоволь навеселившись полной свободой и безнаказанностью, Шон и остальное стадо барашков начинают волноваться за Фермера и решают отправиться на его спасение. Замаскировавшись под людей, они едут в большой город, где их ждет самое весёлое и эпическое приключение всей жизни.-
«Бара́шек Шон» (Shaun the Sheep Movie) — британский полнометражный мультфильм «Aardman Animations» о барашке Шоне, герое одноимённого мультсериала. Также является спин-оффом другой серии фильмов Aardman «Уоллес и Громит», где впервые был задействован персонаж Шона. Мультфильм создан с помощью соединения пластилиновой и компьютерной анимации.
Релиз:

Сэмпл

IMDb: 7.50 (5249)
Качество: BDRip-AVC SHAUN_THE_SHIP_BLUEBIRD
Формат: MKV
Видео: AVC 2567 Kbps 1152 x 624 (1.846) 24.000 fps
Аудио: AC-3 448 Kbps 6 channels, 48.0 KHz Eng
Субтитры: Eng SDH SRT

MI | Log

Log
x264 [info]: frame I:1375 Avg QP:14.03 size:116104
x264 [info]: frame P:32197 Avg QP:15.85 size: 29568
x264 [info]: frame B:88781 Avg QP:16.89 size: 6331
x264 [info]: consecutive B-frames: 3.1% 4.2% 10.7% 57.9% 14.0% 4.6% 1.0% 2.4% 0.6% 0.2% 0.3% 0.4% 0.6%
x264 [info]: mb I I16..4: 8.6% 66.9% 24.5%
x264 [info]: mb P I16..4: 1.1% 10.0% 2.2% P16..4: 30.3% 25.6% 12.1% 2.6% 0.5% skip:15.6%
x264 [info]: mb B I16..4: 0.2% 1.1% 0.2% B16..8: 25.1% 11.3% 2.2% direct: 3.5% skip:56.4% L0:41.9% L1:50.1% BI: 8.1%
x264 [info]: 8x8 transform intra:73.1% inter:49.9%
x264 [info]: direct mvs spatial:100.0% temporal:0.0%
x264 [info]: coded y,uvDC,uvAC intra: 85.2% 85.7% 74.6% inter: 14.0% 16.0% 5.9%
x264 [info]: i16 v,h,dc,p: 41% 15% 9% 35%
x264 [info]: i8 v,h,dc,ddl,ddr,vr,hd,vl,hu: 12% 12% 11% 8% 10% 10% 11% 11% 14%
x264 [info]: i4 v,h,dc,ddl,ddr,vr,hd,vl,hu: 14% 12% 10% 8% 12% 11% 12% 10% 12%
x264 [info]: i8c dc,h,v,p: 40% 28% 19% 13%
x264 [info]: Weighted P-Frames: Y:4.5% UV:2.5%
x264 [info]: ref P L0: 50.2% 8.9% 16.1% 6.8% 5.2% 3.8% 2.9% 1.5% 1.4% 1.3% 1.4% 0.3% 0.0%
x264 [info]: ref B L0: 68.8% 12.5% 5.7% 3.3% 4.4% 2.1% 1.3% 0.8% 0.6% 0.4%
x264 [info]: ref B L1: 93.8% 6.2%
x264 [info]: kb/s:2626.43
x264 [total]: encoded 122353 frames, 9.62 fps, 2626.43 kb/s, duration 3:31:56.98
Format : Matroska
Format version : Version 4 / Version 2
File size : 1.83 GiB
Duration : 1h 24mn
Overall bit rate : 3 076 Kbps
Encoded date : UTC 2015-06-02 12:48:29
Writing application : mkvmerge v6.7.0 ('Back to the Ground') 32bit built on Jan 8 2014 15:03:17
Writing library : libebml v1.3.0 + libmatroska v1.4.1
Video
ID : 1
Format : AVC
Format/Info : Advanced Video Codec
Format profile : High@L4.1
Format settings, CABAC : Yes
Format settings, ReFrames : 11 frames
Codec ID : V_MPEG4/ISO/AVC
Duration : 1h 24mn
Bit rate : 2 567 Kbps
Width : 1 152 pixels
Height : 624 pixels
Display aspect ratio : 1.85:1
Frame rate mode : Constant
Frame rate : 24.000 fps
Color space : YUV
Chroma subsampling : 4:2:0
Bit depth : 8 bits
Scan type : Progressive
Bits/(Pixel*Frame) : 0.149
Stream size : 1.52 GiB (83%)
Title : Shaun the Sheep Movie (2015) [rutracker.org]
Writing library : x264 core 146 r2538kMod 121396c
Encoding settings : cabac=1 / ref=11 / deblock=1:-2:-1 / analyse=0x3:0x133 / me=umh / subme=11 / psy=1 / fade_compensate=0.00 / psy_rd=1.00:0.05 / mixed_ref=1 / me_range=32 / chroma_me=1 / trellis=2 / 8x8dct=1 / cqm=0 / deadzone=21,11 / fast_pskip=0 / chroma_qp_offset=-3 / threads=12 / lookahead_threads=3 / sliced_threads=0 / nr=0 / decimate=1 / interlaced=0 / bluray_compat=0 / constrained_intra=0 / fgo=0 / bframes=12 / b_pyramid=2 / b_adapt=2 / b_bias=0 / direct=3 / weightb=1 / open_gop=0 / weightp=2 / keyint=250 / keyint_min=23 / scenecut=40 / intra_refresh=0 / rc_lookahead=80 / rc=crf / mbtree=0 / crf=17.3000 / qcomp=0.60 / qpmin=0 / qpmax=69 / qpstep=4 / vbv_maxrate=50000 / vbv_bufsize=62500 / crf_max=0.0 / nal_hrd=none / filler=0 / ip_ratio=1.40 / pb_ratio=1.30 / aq=3:0.90
Language : English
Default : Yes
Forced : No
Audio
ID : 2
Format : AC-3
Format/Info : Audio Coding 3
Mode extension : CM (complete main)
Format settings, Endianness : Big
Codec ID : A_AC3
Duration : 1h 24mn
Bit rate mode : Constant
Bit rate : 448 Kbps
Channel(s) : 6 channels
Channel positions : Front: L C R, Side: L R, LFE
Sampling rate : 48.0 KHz
Bit depth : 16 bits
Compression mode : Lossy
Stream size : 272 MiB (15%)
Title : Original
Language : English
Default : Yes
Forced : No
Text
ID : 3
Format : UTF-8
Codec ID : S_TEXT/UTF8
Codec ID/Info : UTF-8 Plain Text
Title : SDH
Language : English
Default : No
Forced : No
Menu
00:00:00.000 : en:00:00:00.000
00:06:24.500 : en:00:06:24.500
00:13:52.875 : en:00:13:52.875
00:19:32.375 : en:00:19:32.375
00:25:57.833 : en:00:25:57.833
00:31:51.292 : en:00:31:51.292
00:40:06.750 : en:00:40:06.750
00:45:35.500 : en:00:45:35.500
00:53:03.833 : en:00:53:03.833
00:58:45.167 : en:00:58:45.167
01:02:58.917 : en:01:02:58.917
01:11:40.917 : en:01:11:40.917

Скриншоты





_________________
Показать сообщения:    

Текущее время: Сегодня 07:02

Часовой пояс: GMT



Вы не можете начинать темы
Вы не можете отвечать на сообщения
Вы не можете редактировать свои сообщения
Вы не можете удалять свои сообщения
Вы не можете голосовать в опросах
Вы не можете прикреплять файлы к сообщениям
Вы не можете скачивать файлы