Важное объявление!
У Нас Все раздачи мультитрекерные, при нуле пиров в релизах, можете смело вставать на закачку!
Статистика раздачи
Размер:     |    Зарегистрирован:     |    Скачан:     |   
Нет
 
     
 
 
Автор Сообщение

HUNTER

Стаж:
5 лет 1 месяц
Сообщений:
68426

Репутация: 101

[+] [-]
Вне форума [Профиль] [ЛС]

Бабай
Год выпуска: 2014
Страна: Украина
Жанр: мультфильм, приключения, комедия, фэнтези, семейный
Продолжительность: 01:07:11
Перевод: профессиональный (дублированный)
Cубтитры: нет
Режиссер: Марина Медведь
В ролях: Рада Белова, Ирма Витовская, Остап Ступка, Олеся Чичельницкая, Катерина Бутская, Андрей Федюнчиков, Евгений Пашин, Ольга Радчук, Алена Блинникова, Мирослав Кувалдин
Роли дублировали: Алексей Потапенко, Настя Каменских
Описание: Что будет, если в мире появится волшебное яйцо, исполняющее одно, но самое заветное желание? А что, если охоту за ним начнут герои детских страшилок — Ведьма с Чертом, Вий и главный злодей и кошмар всех детских снов Бабай со своей армией страхов… Страшно представить ради исполнения каких сокровенных желаний силы тьмы восстали против друг друга, и что будет с теми, кто случайно окажется у них на пути…- | Сэмпл
Премьера (мир): 18 декабря 2014 | Премьера (РФ): 11 декабря 2014, «Top Film Distribution»-Качество: WEB-DLRip (исх. WEB-DL.1080p)
Формат видео: AVI
Видео: 720x400 (1.80:1), 25 fps, XviD ~1348 kbps, 0.19 bit/pixel
Аудио: 48 kHz, AC3, 2/0 (L,R) ch, ~192 kbps

-

MediaInfo

GeneralComplete name : Babay.2014.Olu6ka.aviFormat : AVIFormat/Info : Audio Video InterleaveFile size : 745 MiBDuration : 1h 7mnOverall bit rate : 1 550 KbpsWriting application : VirtualDubMod 1.5.10.3 |Writing library : VirtualDubMod build 2550/release
VideoID : 0Format : MPEG-4 VisualFormat profile : Advanced Simple@L5Format settings, BVOP : 1Format settings, QPel : NoFormat settings, GMC : No warppointsFormat settings, Matrix : CustomCodec ID : XVIDCodec ID/Hint : XviDDuration : 1h 7mnBit rate : 1 349 KbpsWidth : 720 pixelsHeight : 400 pixelsDisplay aspect ratio : 16:9Frame rate : 25.000 fpsColor space : YUVChroma subsampling : 4:2:0Bit depth : 8 bitsScan type : ProgressiveCompression mode : LossyBits/(Pixel*Frame) : 0.187Stream size : 648 MiB (87%)Writing library : XviD 73
AudioID : 1Format : AC-3Format/Info : Audio Coding 3Mode extension : CM (complete main)Format settings, Endianness : BigCodec ID : 2000Duration : 1h 7mnBit rate mode : ConstantBit rate : 192 KbpsChannel count : 2 channelsChannel positions : Front: L RSampling rate : 48.0 KHzBit depth : 16 bitsCompression mode : LossyStream size : 92.3 MiB (12%)Alignment : Split accross interleavesInterleave, duration : 40 ms (1.00 video frame)Interleave, preload duration : 500 ms
Релиз от группы

_________________
Показать сообщения:    

Текущее время: Сегодня 20:22

Часовой пояс: GMT



Вы не можете начинать темы
Вы не можете отвечать на сообщения
Вы не можете редактировать свои сообщения
Вы не можете удалять свои сообщения
Вы не можете голосовать в опросах
Вы не можете прикреплять файлы к сообщениям
Вы не можете скачивать файлы