Важное объявление!
У Нас Все раздачи мультитрекерные, при нуле пиров в релизах, можете смело вставать на закачку!
 
Автор Сообщение

HUNTER

Стаж:
4 года 7 месяцев
Сообщений:
61508

Репутация: 101

[+] [-]
Вне форума [Профиль] [ЛС]

Бюро убийств / The Assassination Bureau
Страна: Великобритания
Студия: Heathfield, Paramount Pictures
Жанр: триллер, комедия, криминал, приключения
Год выпуска: 1969
Продолжительность: 01:50:00
Перевод: Профессиональный (многоголосый закадровый) Paramount channel
Перевод 2: Профессиональный (многоголосый закадровый)
Cубтитры: английские
Оригинальная аудиодорожка: английский
Режиссер: Бэзил Дирден / Basil Dearden
В ролях: Оливер Рид, Дайана Ригг, Телли Савалас, Курд Юргенс, Филипп Нуаре, Уоррен Митчелл, Берил Рид, Клайв Ревилл, Кеннет Гриффит, Вернон Добчефф
Описание: Девушка, одержимая идеей равенства полов, Соня Винтер, ввязывается в весьма опасную авантюру. Став клиентом фирмы под устрашающим названием «Бюро убийств», она заказывает убийство самого главы этой организации Ивана Драгомилова. Иван, хорошо образованный молодой человек с высокими моральными устоями, унаследовавший дело своего отца, принимает заказ, бросив тем самым дерзкий вызов всем остальным членам организации…
Фильм снят по неоконченной книге Джека Лондона, идею которой он купил у молодого журналиста Синклера Льюиса (будущего классика американской литературы). Джек Лондон хотел написать детективный роман, действие которого бы происходило в разных городах Европы, но успел оставить только одиннадцать глав. Много позже писатель детективных романов Роберт Л.Фиш завершил книгу, опираясь на оставленные наброски и черновики автора.
Фильм представляет собой блестящий образец приключенческой комедии 60-70-хх, в главной роли - прославленный хулиган английского кинематографа Оливер Рид.

Доп. информация: За дорожку Paramount channel спасибо vedigo, за вторую многоголоску спасибо Turen.
Кинопоиск
Sample
Тип релиза: WEB-DL 720p
Контейнер: MKV
Видео: MPEG4 AVC Video, H264, 16:9, 1280x718, 23.976 fps, 3966 kbps
Аудио: Russian (AC3, 2 ch, 192 kbps, 16 bits, 48.0 KHz) - Paramount channel
Аудио 2: Russian (AC3, 2 ch, 160 kbps, 16 bits, 48.0 KHz) - MVO # 2
Аудио 3: English (AC3, 2 ch, 192 kbps, 16 bits, 48.0 KHz) - оригинал
Формат субтитров: softsub (SRT)

MediaInfo

General
Unique ID : 215866993407014148555981005716301960493 (0xA266787D38EA5995B454471ADB1A552D)
Complete name : L:\The Assassination Bureau 1969 WEB-DL 720p.mkv
Format : Matroska
Format version : Version 4 / Version 2
File size : 3.54 GiB
Duration : 1h 50mn
Overall bit rate : 4 601 Kbps
Encoded date : UTC 2015-11-02 21:03:07
Writing application : mkvmerge v6.1.0 ('Old Devil') built on Mar 2 2013 14:32:37
Writing library : libebml v1.3.0 + libmatroska v1.4.0
Video
ID : 1
Format : AVC
Format/Info : Advanced Video Codec
Format profile : High@L3.1
Format settings, CABAC : No
Format settings, ReFrames : 2 frames
Codec ID : V_MPEG4/ISO/AVC
Duration : 1h 50mn
Bit rate : 3 966 Kbps
Width : 1 280 pixels
Height : 718 pixels
Display aspect ratio : 16:9
Frame rate mode : Constant
Frame rate : 23.976 fps
Color space : YUV
Chroma subsampling : 4:2:0
Bit depth : 8 bits
Scan type : Progressive
Bits/(Pixel*Frame) : 0.180
Stream size : 3.05 GiB (86%)
Language : English
Default : Yes
Forced : No
Color primaries : BT.709
Transfer characteristics : BT.709
Matrix coefficients : BT.709
Audio #1
ID : 2
Format : AC-3
Format/Info : Audio Coding 3
Mode extension : CM (complete main)
Format settings, Endianness : Big
Codec ID : A_AC3
Duration : 1h 50mn
Bit rate mode : Constant
Bit rate : 192 Kbps
Channel count : 2 channels
Channel positions : Front: L R
Sampling rate : 48.0 KHz
Bit depth : 16 bits
Compression mode : Lossy
Stream size : 151 MiB (4%)
Title : Paramount channel
Language : Russian
Default : Yes
Forced : No
Audio #2
ID : 3
Format : AC-3
Format/Info : Audio Coding 3
Mode extension : CM (complete main)
Format settings, Endianness : Big
Codec ID : A_AC3
Duration : 1h 50mn
Bit rate mode : Constant
Bit rate : 160 Kbps
Channel count : 2 channels
Channel positions : Front: L R
Sampling rate : 48.0 KHz
Bit depth : 16 bits
Compression mode : Lossy
Stream size : 126 MiB (3%)
Title : MVO 2
Language : Russian
Default : No
Forced : No
Audio #3
ID : 4
Format : AC-3
Format/Info : Audio Coding 3
Mode extension : CM (complete main)
Format settings, Endianness : Big
Codec ID : A_AC3
Duration : 1h 50mn
Bit rate mode : Constant
Bit rate : 192 Kbps
Channel count : 2 channels
Channel positions : Front: L R
Sampling rate : 48.0 KHz
Bit depth : 16 bits
Compression mode : Lossy
Stream size : 151 MiB (4%)
Language : English
Default : No
Forced : No
Text
ID : 5
Format : UTF-8
Codec ID : S_TEXT/UTF8
Codec ID/Info : UTF-8 Plain Text
Language : English
Default : No
Forced : No
Menu
00:00:00.000 : en:Murder As A Fine Art
00:05:46.000 : en:Ivan Dragomiloff
00:14:27.000 : en:Miss Winter's Commission
00:21:04.000 : en:The Devil In Paris
00:31:57.000 : en:Trapped
00:36:45.000 : en:The Merit Of Surprise
00:41:38.000 : en:Swiss Efficiency
00:48:44.000 : en:A Cause For Celebration
00:56:19.000 : en:Venetian Cuisine
01:09:26.000 : en:Surrender Is No Defeat
01:18:30.000 : en:Lord Bostwick Pays His Respects
01:29:23.000 : en:The Zeppelin
01:42:14.000 : en:Virtue Is Rewarded

Скриншоты


_________________
Показать сообщения:    

Текущее время: Сегодня 00:52

Часовой пояс: GMT



Вы не можете начинать темы
Вы не можете отвечать на сообщения
Вы не можете редактировать свои сообщения
Вы не можете удалять свои сообщения
Вы не можете голосовать в опросах
Вы не можете прикреплять файлы к сообщениям
Вы не можете скачивать файлы
Наши партнеры: интернет магазин Ивановского трикотажа textilla.ru