Ивановский Торрент трекер
Яндекс.Погода
 

[Цитировать]
HUNTER

Бэтмен
Batman--
Страна: США, Великобритания
Студия: Warner Bros. Pictures
Жанр: фантастика, боевик, триллер, криминал
Год выпуска: 1989
Продолжительность: 02:06:12-Перевод:
  • Профессиональный дублированный (Варус, Blu-Ray CEE)
  • Авторский одноголосый закадровый (Гаврилов)
  • Профессиональный двухголосый закадровый (НТВ+)
  • Профессиональный многоголосый закадровый (ОРТ)
  • Профессиональный многоголосый закадровый (РТР)
  • Оригинальная аудиодорожка (английский)
  • Cубтитры: русские, английские
-Режиссер: Тим Бёртон / Tim Burton
В ролях: Майкл Китон (Брюс Вейн / Бэтмен), Джек Николсон (Джокер), Билли Ди Уильямс (Харви Дент), Майкл Гоф (Альфред), Ким Бейсингер (Вики Вейл), Роберт Вул (Александр Кнох), Пэт Хингл (Джеймс Гордон), Джек Пэланс, Джерри Холл, Трейси Уолтер
Описание: Извечное противостояние добра и зла: сумасшедший, но обаятельный злодей Джокер — смертельная угроза для города Готэма. Бескомпромиссный и загадочный Бэтмэн — его последняя надежда на спасение. Только герой-спаситель не желает раскрывать свое подлинное имя, и не только из скромности… Но настойчивая журналистка, полна решимости узнать, кому жители Готэма обязаны всем…
-Награды:
Оскар, 1990 год — Лучшие декорации--IMDb 7.6/10 (118,789 votes)
КиноПоиск 7.619 (12 866)--Тип релиза: DVD9 (Custom) Семпл
Контейнер: DVD-Video
Видео: NTSC 16:9 (720x480) VBR Auto Letterboxed ~6384 Кбит/сек, 23,976 кадр/сек
Аудио#1: AC-3, 3/2ch, 448 Kbps, 48.0 KHz, 5.1 DD [Русский дублированный]
Аудио#2: AC-3, 3/2ch, 448 Kbps, 48.0 KHz, 5.1 DD [Оригинальный английский]
Аудио#3: AC-3, 3/2ch, 384 Kbps, 48.0 KHz, 5.1 DD [Авторский, Гаврилов]
Аудио#4: AC3 , 2.0, 48KHz , 192 kbps [Двухголосый, НТВ]
Аудио#5: AC3 , 2.0, 48KHz , 192 kbps [Многоголосый, ОРТ]
Аудио#6: AC3 , 2.0, 48KHz , 192 kbps [Многоголосый, РТР]
-
-

Описание изготовления релиза

Источник видео: Blu-ray (37.3 GB) - Cпасибо stim_too
Видео сжато в 2 проходов с помощью программы Cinema Craft Encoder SP3, индексатор - FFMpegSource2
Русская дублированная и оригинальная дорожки были взяты из оригинального Blu-ray
Дорожки с переводом Гаврилова, с переводами телеканалов (НТВ, ОРТ и РТР), а также субтитры были взяты из этой потрясающей раздачи, спасибо edich2
Меню озвученное, полностью анимированное, на русском языке, с навигацией по эпизодам. Все кнопки функциональны.-Отдельное спасибо Mikky72, germanm2000, tartak и GarfieldX за полезные инструкции.

Бриф по изготовлению DVD

  • Видео
    Cinema Craft Encoder SP3 - конвертация видео
    AviSynth - обработка видео
    FFMpegSource2 - индексирование
  • Програмы для разборки/сборки ДВД
    tsMuxeR - разборка Blu-ray
    mkvmergeGUI - Сборка МKV
    DVD-lab PRO - компиляция DVD
  • Работа со звуком
    BeLight - разборка оригинальных дорожек
    Vegas Pro 9.0 - сборка АС3 дорожек
  • Работа с субтитрами
    DVD-lab PRO - создание потоков субтитров
  • Работа с меню и реавторинг
    DVD-lab PRO и DVDReMakePro - разработка и создание оригинального меню

MediaInfo

Общее
Полное имя : C:\BD to DVD\Batman [BD to DVD]\VIDEO_TS\VTS_01_1.VOB
Формат : MPEG-PS
Размер файла : 1024 Мбайт
Продолжительность : 17 м.
Общий поток : 8408 Кбит/сек
Видео
Идентификатор : 224 (0xE0)
Формат : MPEG Video
Версия формата : Version 2
Профиль формата : Main@Main
Параметр BVOP формата : Да
Параметр матрицы формата : По умолчанию
Продолжительность : 17 м.
Вид битрейта : Переменный
Битрейт : 6384 Кбит/сек
Номинальный битрейт : 9800 Кбит/сек
Ширина : 720 пикс.
Высота : 480 пикс.
Соотношение сторон : 16:9
Частота кадров : 23,976 кадр/сек
Стандарт вещания : NTSC
Цветовое пространство : YUV
Подвыборка цветности : 4:2:0
Битовая глубина : 8 бит
Тип развёртки : Прогрессивная
Порядок развёртки : 2:3 Pulldown
Метод сжатия : С потерями
Бит/(Пиксели*Кадры) : 0.770
Размер потока : 778 Мбайт (76%)
Аудио #1
Идентификатор : 189 (0xBD)-128 (0x80)
Формат : AC-3
Формат/Информация : Audio Coding 3
Расширение режима : CM (complete main)
Режим смешивания : DVD-Video
Продолжительность : 17 м.
Вид битрейта : Постоянный
Битрейт : 448 Кбит/сек
Канал(ы) : 6 канала(ов)
Расположение каналов : Front: L C R, Side: L R, LFE
Частота : 48,0 КГц
Битовая глубина : 16 бит
Метод сжатия : С потерями
Размер потока : 54,5 Мбайт (5%)
Аудио #2
Идентификатор : 189 (0xBD)-129 (0x81)
Формат : AC-3
Формат/Информация : Audio Coding 3
Расширение режима : CM (complete main)
Режим смешивания : DVD-Video
Продолжительность : 17 м.
Вид битрейта : Постоянный
Битрейт : 448 Кбит/сек
Канал(ы) : 6 канала(ов)
Расположение каналов : Front: L C R, Side: L R, LFE
Частота : 48,0 КГц
Битовая глубина : 16 бит
Метод сжатия : С потерями
Размер потока : 54,5 Мбайт (5%)
Аудио #3
Идентификатор : 189 (0xBD)-130 (0x82)
Формат : AC-3
Формат/Информация : Audio Coding 3
Расширение режима : CM (complete main)
Режим смешивания : DVD-Video
Продолжительность : 17 м.
Вид битрейта : Постоянный
Битрейт : 384 Кбит/сек
Канал(ы) : 6 канала(ов)
Расположение каналов : Front: L C R, Side: L R, LFE
Частота : 48,0 КГц
Битовая глубина : 16 бит
Метод сжатия : С потерями
Размер потока : 46,8 Мбайт (5%)
Аудио #4
Идентификатор : 189 (0xBD)-131 (0x83)
Формат : AC-3
Формат/Информация : Audio Coding 3
Расширение режима : CM (complete main)
Режим смешивания : DVD-Video
Продолжительность : 17 м.
Вид битрейта : Постоянный
Битрейт : 192 Кбит/сек
Канал(ы) : 2 канала(ов)
Расположение каналов : Front: L R
Частота : 48,0 КГц
Битовая глубина : 16 бит
Метод сжатия : С потерями
Размер потока : 23,4 Мбайт (2%)
Аудио #5
Идентификатор : 189 (0xBD)-132 (0x84)
Формат : AC-3
Формат/Информация : Audio Coding 3
Расширение режима : CM (complete main)
Режим смешивания : DVD-Video
Продолжительность : 17 м.
Вид битрейта : Постоянный
Битрейт : 192 Кбит/сек
Канал(ы) : 2 канала(ов)
Расположение каналов : Front: L R
Частота : 48,0 КГц
Битовая глубина : 16 бит
Метод сжатия : С потерями
Размер потока : 23,4 Мбайт (2%)
Аудио #6
Идентификатор : 189 (0xBD)-133 (0x85)
Формат : AC-3
Формат/Информация : Audio Coding 3
Расширение режима : CM (complete main)
Режим смешивания : DVD-Video
Продолжительность : 17 м.
Вид битрейта : Постоянный
Битрейт : 192 Кбит/сек
Канал(ы) : 2 канала(ов)
Расположение каналов : Front: L R
Частота : 48,0 КГц
Битовая глубина : 16 бит
Метод сжатия : С потерями
Размер потока : 23,4 Мбайт (2%)
Меню

DVDInfo

Title: Batman [BD to DVD]
Size: 7.78 Gb ( 8 160 356,00 KBytes ) - DVD-9
Enabled regions: 1, 2, 3, 4, 5, 6, 7, 8
VTS_01 :
Play Length: 02:06:12
Video: NTSC 16:9 (720x480) VBR, Auto Letterboxed
Audio:
Russian (Dolby AC3, 6 ch)
English (Dolby AC3, 6 ch)
Russian (Dolby AC3, 6 ch)
Russian (Dolby AC3, 2 ch)
Russian (Dolby AC3, 2 ch)
Russian (Dolby AC3, 2 ch)
Subtitles:
Russian
English
* Menus Information *
VIDEO_TS Menu
Video:
NTSC 4:3 (720x480) VBR
English Language Unit :
Title Menu
VTS_01 Menu
Video:
NTSC 4:3 (720x480) VBR
Audio:
Not specified (Dolby AC3, 2 ch)
English Language Unit :
Root Menu

Скриншоты меню

Проверено на PowerDVD10 и железном плеере Toshiba. Записано программой ImgBurn. Подробная инструкция.
Точка перехода на второй слой выставлена
Показать сообщения:    

Текущее время: 21-Окт 09:38

Часовой пояс: UTC - 1


Вы не можете начинать темы
Вы не можете отвечать на сообщения
Вы не можете редактировать свои сообщения
Вы не можете удалять свои сообщения
Вы не можете голосовать в опросах
Вы не можете прикреплять файлы к сообщениям
Вы не можете скачивать файлы

!ВНИМАНИЕ!
Сайт не предоставляет электронные версии произведений, а занимается лишь коллекционированием и каталогизацией ссылок, присылаемых и публикуемых на форуме нашими читателями. Если вы являетесь правообладателем какого-либо представленного материала и не желаете, чтобы ссылка на него находилась в нашем каталоге, свяжитесь с нами, и мы незамедлительно удалим ее. Файлы для обмена на трекере предоставлены пользователями сайта, и администрация не несет ответственности за их содержание. Просьба не заливать файлы, защищенные авторскими правами, а также файлы нелегального содержания!