Важное объявление!
У Нас Все раздачи мультитрекерные, при нуле пиров в релизах, можете смело вставать на закачку!
 
Автор Сообщение

HUNTER

Стаж:
4 года 8 месяцев
Сообщений:
61998

Репутация: 101

[+] [-]
Вне форума [Профиль] [ЛС]

Бэтмен: Убийственная шутка / Batman: The Killing Joke-
-Страна: США
Жанр: мультфильм, боевик, триллер, драма, криминал
Продолжительность: 01:16:39
Год выпуска: 2016
Перевод: Авторский (одноголосый закадровый) [Chesteronlin]
Русские субтитры: есть-Режиссёр: Сэм Лью / Sam Liu
Роли озвучивали: Марк Хэмилл, Кари Уолгрен, Тара Стронг, Нолан Норт, Джон Ди Маджио, Кевин Конрой, Рэй Уайз, Робин Аткин Даунс, Мори Стерлинг, Фред Татаскьор-Описание: Бэтмен появляется в клинике Аркхем, где выясняет, что Джокер сумел бежать из-под охраны. Этот опасный пациент был под наблюдением, но теперь его функции развлекать лечебницу переданы другому. Тот в роли клоуна, не отдающего себе отчета в последствиях происходящего. Джокер на свободе и намерен показать окружающим, на что способен. Ошибались те, кто считал его умалишенным. Мир вокруг сошел с ума, а у Джокера есть свои планы и способы их реализации. Парк аттракционов, давно не функционирующий, куплен беглецом из клиники за копейки. Это первый шаг на пути к мечте. Джеймс Гордон становится помощником Джокера. Почему именно он? Гордон олицетворяет собой честь и мораль в Готэме, прогнившем насквозь…-Семпл: http://multi-up.com/1112401-Качество: HDRip
Формат: AVI
Видео: MPEG-4 Visual at 1218 Кбит/сек, 688 x 384 (1.792) at 23.976 fps
Аудио: MPEG Audio at 320 Кбит/сек, 2 канала, 44,1 КГц
Аудио 2: MPEG Audio at 320 Кбит/сек, 2 канала, 48,0 КГц
Субтитры: русские, английские-

Подробные технические данные

ОбщееПолное имя : C:\Users\Chesteronlin\Videos\Batman The Killing Joke\Batman Killing Joke (Russian voiceover by Chesteronlin).aviФормат : AVIФормат/Информация : Audio Video InterleaveРазмер файла : 1,00 ГбайтПродолжительность : 1 ч. 16 м.Общий поток : 1872 Кбит/секПрограмма кодирования : VirtualDubMod 1.5.10.2 (build 2540/release)Библиотека кодирования : VirtualDubMod build 2540/release
ВидеоИдентификатор : 0Формат : MPEG-4 VisualПрофиль формата : Advanced Simple@L5Параметр BVOP формата : 1Параметр QPel формата : НетПараметр GMC формата : Без точки переходаПараметр матрицы формата : ВыборочнаяИдентификатор кодека : XVIDИдентификатор кодека/Подсказка : XviDПродолжительность : 1 ч. 16 м.Битрейт : 1218 Кбит/секШирина : 688 пикселейВысота : 384 пикселяСоотношение сторон : 16:9Частота кадров : 23,976 (23976/1000) кадра/секЦветовое пространство : YUVСубдискретизация насыщенности : 4:2:0Битовая глубина : 8 битТип развёртки : ПрогрессивнаяМетод сжатия : С потерямиБит/(Пиксели*Кадры) : 0.192Размер потока : 668 Мбайт (65%)Библиотека кодирования : XviD 73
Аудио #1Идентификатор : 1Формат : MPEG AudioВерсия формата : Version 1Профиль формата : Layer 3Идентификатор кодека : 55Идентификатор кодека/Подсказка : MP3Продолжительность : 1 ч. 16 м.Вид битрейта : ПостоянныйБитрейт : 320 Кбит/секКаналы : 2 каналаЧастота : 44,1 КГцМетод сжатия : С потерямиРазмер потока : 175 Мбайт (17%)Выравнивание : Разделение по промежуткамПродолжительность промежутка : 42 мс. (1,00 видеокадр)Время предзагрузки промежутка : 500 мс.
Аудио #2Идентификатор : 2Формат : MPEG AudioВерсия формата : Version 1Профиль формата : Layer 3Режим : Joint stereoИдентификатор кодека : 55Идентификатор кодека/Подсказка : MP3Продолжительность : 1 ч. 16 м.Вид битрейта : ПостоянныйБитрейт : 320 Кбит/секКаналы : 2 каналаЧастота : 48,0 КГцМетод сжатия : С потерямиРазмер потока : 175 Мбайт (17%)Выравнивание : Соединение по промежуткамПродолжительность промежутка : 42 мс. (1,00 видеокадр)Время предзагрузки промежутка : 504 мс.Библиотека кодирования : LAME3.97

-

Скриншоты

Заранее спасибо всем, кто скачает. Очень давно ничего не озвучивал, сильно не бейте. Приятного просмотра.

_________________
Показать сообщения:    

Текущее время: Сегодня 05:28

Часовой пояс: GMT



Вы не можете начинать темы
Вы не можете отвечать на сообщения
Вы не можете редактировать свои сообщения
Вы не можете удалять свои сообщения
Вы не можете голосовать в опросах
Вы не можете прикреплять файлы к сообщениям
Вы не можете скачивать файлы
Наши партнеры: интернет магазин Ивановского трикотажа textilla.ru