Важное объявление!
У Нас Все раздачи мультитрекерные, при нуле пиров в релизах, можете смело вставать на закачку!
 
Автор Сообщение

HUNTER

Стаж:
4 года 10 месяцев
Сообщений:
65492

Репутация: 101

[+] [-]
Вне форума [Профиль] [ЛС]


Бэтмен против Робина | Batman vs. Robin
-
Страна: США
Жанр: мультфильм, боевик, приключения
Продолжительность: 1:20:00
Год выпуска: 2015
Перевод: Любительский (Многоголосый закадровый) - FISH
Перевод 2: Любительский (многоголосый закадровый) DuBDraG ProJECT
Перевод 3: Любительский (Многоголосый закадровый) - ZM-SHOW
Русские субтитры: есть
Режиссёр: Джей Олива / Jay Oliva
Роли озвучивали: Стюарт Алланб, Трой Бэйкер, Кевин Конрой, Тревор Дивэлл, Робин Аткин Даунс, Гриффин Глюк, Грэй Гриффин-ОписаниеВ Готем возвращается тайная масонская организация Суд Сов, берущая на себя власть казнить как преступников, так и просто неугодных им городских деятелей. Выясняется, что именно они стали когда-то причиной убийства родителей Уэйна-Релиз:

- Большое спасибо РГ FISH за предоставление русской дороги!
- Большое спасибо РГ DuBDraG ProJECT за предоставление чистых голосов!
- Большое спасибо РГ ZM-SHOW за предоставление чистых голосов!
- Большое спасибо РГ Dakota Family Translators за предоставление русских субтитров!
- Работа со звуком xfiles
- Работа с BDRemux'ом -Azureus-
-Сэмпл

IMDb: 7.00 (1055)
Качество: BDRip 720p Batman.vs.Robin.2015.1080p.BluRay.AVC.DTS-HD.MA.5.1-HDAccess
Формат: MKV
Видео: AVC 3384 Kbps 1280 x 720 (1.778) 23.976 fps
Аудио 1: AC-3 640 Kbps 6 channels, 48.0 KHz Rus MVO FISH
Аудио 2: AC-3 640 Kbps 6 channels, 48.0 KHz Rus MVO DuBDraG ProJECT
Аудио 3: AC-3 640 Kbps 6 channels, 48.0 KHz Rus MVO ZM-SHOW
Аудио 4: AC-3 640 Kbps 6 channels, 48.0 KHz Eng
Субтитры: Rus, Eng SRT

MI | Log

Log
x264 [info]: frame I:1127 Avg QP: 7.74 size:145516
x264 [info]: frame P:30961 Avg QP: 9.59 size: 41882
x264 [info]: frame B:82983 Avg QP:10.72 size: 7722
x264 [info]: consecutive B-frames: 3.9% 7.5% 7.2% 57.4% 5.4% 5.4% 1.5% 6.5% 1.1% 2.4% 1.8%
x264 [info]: mb I I16..4: 20.0% 49.3% 30.7%
x264 [info]: mb P I16..4: 2.5% 10.0% 3.7% P16..4: 23.8% 24.5% 13.9% 4.8% 0.9% skip:15.8%
x264 [info]: mb B I16..4: 0.3% 0.7% 0.2% B16..8: 27.7% 15.6% 3.1% direct: 3.4% skip:48.9% L0:47.6% L1:47.6% BI: 4.8%
x264 [info]: 8x8 transform intra:58.6% inter:28.1%
x264 [info]: direct mvs spatial:100.0% temporal:0.0%
x264 [info]: coded y,uvDC,uvAC intra: 76.5% 82.0% 75.7% inter: 12.5% 12.9% 9.2%
x264 [info]: i16 v,h,dc,p: 44% 15% 19% 22%
x264 [info]: i8 v,h,dc,ddl,ddr,vr,hd,vl,hu: 13% 14% 23% 7% 7% 7% 9% 8% 11%
x264 [info]: i4 v,h,dc,ddl,ddr,vr,hd,vl,hu: 13% 12% 16% 9% 11% 10% 10% 9% 11%
x264 [info]: i8c dc,h,v,p: 52% 24% 14% 10%
x264 [info]: Weighted P-Frames: Y:2.4% UV:1.8%
x264 [info]: ref P L0: 61.6% 2.3% 14.4% 5.8% 4.3% 3.9% 3.1% 2.1% 2.0% 0.4% 0.0%
x264 [info]: ref B L0: 79.1% 10.6% 4.5% 2.0% 1.5% 1.2% 0.8% 0.3%
x264 [info]: ref B L1: 93.8% 6.2%
x264 [info]: kb/s:3502.94
x264 [total]: encoded 115071 frames, 8.42 fps, 3502.95 kb/s, duration 3:47:39.36
Format : Matroska
Format version : Version 4 / Version 2
File size : 3.39 GiB
Duration : 1h 20mn
Overall bit rate : 6 065 Kbps
Encoded date : UTC 2015-05-08 16:30:05
Writing application : mkvmerge v6.7.0 ('Back to the Ground') 32bit built on Jan 8 2014 15:03:17
Writing library : libebml v1.3.0 + libmatroska v1.4.1
Video
ID : 1
Format : AVC
Format/Info : Advanced Video Codec
Format profile : High@L4.1
Format settings, CABAC : Yes
Format settings, ReFrames : 9 frames
Codec ID : V_MPEG4/ISO/AVC
Duration : 1h 20mn
Bit rate : 3 384 Kbps
Width : 1 280 pixels
Height : 720 pixels
Display aspect ratio : 16:9
Frame rate mode : Constant
Frame rate : 23.976 fps
Color space : YUV
Chroma subsampling : 4:2:0
Bit depth : 8 bits
Scan type : Progressive
Bits/(Pixel*Frame) : 0.153
Stream size : 1.89 GiB (56%)
Title : Batman vs. Robin 2015 [rutracker.org]
Writing library : x264 core 146 r2538kMod 121396c
Encoding settings : cabac=1 / ref=9 / deblock=1:-3:-2 / analyse=0x3:0x133 / me=umh / subme=11 / psy=1 / fade_compensate=0.00 / psy_rd=1.00:0.05 / mixed_ref=1 / me_range=32 / chroma_me=1 / trellis=2 / 8x8dct=1 / cqm=0 / deadzone=21,11 / fast_pskip=0 / chroma_qp_offset=-3 / threads=12 / lookahead_threads=3 / sliced_threads=0 / nr=0 / decimate=1 / interlaced=0 / bluray_compat=0 / constrained_intra=0 / fgo=0 / bframes=10 / b_pyramid=2 / b_adapt=2 / b_bias=0 / direct=3 / weightb=1 / open_gop=0 / weightp=2 / keyint=250 / keyint_min=23 / scenecut=40 / intra_refresh=0 / rc_lookahead=80 / rc=crf / mbtree=0 / crf=16.0000 / qcomp=0.60 / qpmin=0 / qpmax=69 / qpstep=4 / vbv_maxrate=50000 / vbv_bufsize=62500 / crf_max=0.0 / nal_hrd=none / filler=0 / ip_ratio=1.40 / pb_ratio=1.30 / aq=3:0.90
Language : English
Default : Yes
Forced : No
Audio #1
ID : 2
Format : AC-3
Format/Info : Audio Coding 3
Mode extension : CM (complete main)
Format settings, Endianness : Big
Codec ID : A_AC3
Duration : 1h 20mn
Bit rate mode : Constant
Bit rate : 640 Kbps
Channel(s) : 6 channels
Channel positions : Front: L C R, Side: L R, LFE
Sampling rate : 48.0 KHz
Bit depth : 16 bits
Compression mode : Lossy
Stream size : 366 MiB (11%)
Title : MVO [FISH]
Language : Russian
Default : Yes
Forced : No
Audio #2
ID : 3
Format : AC-3
Format/Info : Audio Coding 3
Mode extension : CM (complete main)
Format settings, Endianness : Big
Codec ID : A_AC3
Duration : 1h 20mn
Bit rate mode : Constant
Bit rate : 640 Kbps
Channel(s) : 6 channels
Channel positions : Front: L C R, Side: L R, LFE
Sampling rate : 48.0 KHz
Bit depth : 16 bits
Compression mode : Lossy
Stream size : 366 MiB (11%)
Title : MVO [DuBDraG ProJECT]
Language : Russian
Default : No
Forced : No
Audio #3
ID : 4
Format : AC-3
Format/Info : Audio Coding 3
Mode extension : CM (complete main)
Format settings, Endianness : Big
Codec ID : A_AC3
Duration : 1h 20mn
Bit rate mode : Constant
Bit rate : 640 Kbps
Channel(s) : 6 channels
Channel positions : Front: L C R, Side: L R, LFE
Sampling rate : 48.0 KHz
Bit depth : 16 bits
Compression mode : Lossy
Stream size : 366 MiB (11%)
Title : MVO [ZM-SHOW]
Language : Russian
Default : No
Forced : No
Audio #4
ID : 5
Format : AC-3
Format/Info : Audio Coding 3
Mode extension : CM (complete main)
Format settings, Endianness : Big
Codec ID : A_AC3
Duration : 1h 20mn
Bit rate mode : Constant
Bit rate : 640 Kbps
Channel(s) : 6 channels
Channel positions : Front: L C R, Side: L R, LFE
Sampling rate : 48.0 KHz
Bit depth : 16 bits
Compression mode : Lossy
Stream size : 366 MiB (11%)
Title : Original
Language : English
Default : No
Forced : No
Text #1
ID : 6
Format : UTF-8
Codec ID : S_TEXT/UTF8
Codec ID/Info : UTF-8 Plain Text
Title : Full
Language : Russian
Default : No
Forced : No
Text #2
ID : 7
Format : UTF-8
Codec ID : S_TEXT/UTF8
Codec ID/Info : UTF-8 Plain Text
Title : SDH
Language : English
Default : No
Forced : No
Menu
00:00:00.000 : en:00:00:00.000
00:09:04.127 : en:00:09:04.127
00:20:18.551 : en:00:20:18.551
00:28:18.155 : en:00:28:18.155
00:39:18.273 : en:00:39:18.273
00:50:50.589 : en:00:50:50.589
01:01:55.253 : en:01:01:55.253
01:10:11.999 : en:01:10:11.999
01:16:51.982 : en:01:16:51.982

Скриншоты | Rip vs Source





Source

_________________
Показать сообщения:    

Текущее время: Сегодня 03:53

Часовой пояс: GMT



Вы не можете начинать темы
Вы не можете отвечать на сообщения
Вы не можете редактировать свои сообщения
Вы не можете удалять свои сообщения
Вы не можете голосовать в опросах
Вы не можете прикреплять файлы к сообщениям
Вы не можете скачивать файлы