Важное объявление!
У Нас Все раздачи мультитрекерные, при нуле пиров в релизах, можете смело вставать на закачку!
 
Автор Сообщение

HUNTER

Стаж:
4 года 7 месяцев
Сообщений:
61531

Репутация: 101

[+] [-]
Вне форума [Профиль] [ЛС]

Бэтмен против Робина
Batman vs. Robin
Год выпуска: 2015
Страна: США
Жанр: мультфильм, боевик, приключения
Продолжительность: 01:20:00
Перевод:
Любительский (Многоголосый закадровый) - FISH
Любительский (Многоголосый закадровый) - DuBDraG ProJECT
Любительский (Многоголосый закадровый) - ZM-SHOW
русские субтитры: есть-Режиссёр: Джей Олива : Jay Oliva-Роли озвучивали: Стюарт Аллан, Трой Бэйкер, Кевин Конрой, Тревор Дивэлл, Робин Аткин Даунс, Гриффин Глюк, Грэй Гриффин, Шон Маэр, Дэвид МакКаллум, Джейсон О’Мара-Описание: Готэм-Сити продолжает оставаться клоакой, где процветает преступность, а детям точно не место. Однако герою фильма – Дэмиану Уэйну предстоит сражаться здесь. Ведь он не просто ребенок, а сын самого Бэтмена.
Дэмиан, теперь под именем Робин расследует очередное преступление. На месте происшествия происходит встреча с загадочным Талоном. Он способствует попаданию мальчика в среду таинственного общества под названием Суд Сов. Начинается опасное путешествие, где Бэтмену и Робину предстоит вступить в противостояние друг с другом. Битва будет между очень серьезными и опасными противниками!..- релиз: -- Большое спасибо РГ FISH за предоставление русской дороги!
- Большое спасибо РГ DuBDraG ProJECT за предоставление чистых голосов!
- Большое спасибо РГ ZM-SHOW за предоставление чистых голосов!
- Большое спасибо РГ Dakota Family Translators за предоставление русских субтитров!
- Работа со звуком xfiles
- Работа с BDRemux'ом -Azureus--Качество: BDRemux 1080p
Формат: MKV
Видео кодек: AVC
Аудио кодек: DTS MA : AC3
Видео: 1920x1080 , 23,976 fps, ~25,6 Мbps avg, 0.515 bit/pixel
Аудио #1: [RUS] DTS-HD MA 5.1 / 48 kHz / 3870 kbps / 24-bit (DTS Core: 5.1 / 48 kHz / 1509 kbps / 24-bit) - FISH
Аудио #2: [RUS] DTS-HD MA 5.1 / 48 kHz / 3866 kbps / 24-bit (DTS Core: 5.1 / 48 kHz / 1509 kbps / 24-bit) - DuBDraG ProJECT
Аудио #3: [RUS] DTS-HD MA 5.1 / 48 kHz / 3862 kbps / 24-bit (DTS Core: 5.1 / 48 kHz / 1509 kbps / 24-bit) - ZM-SHOW
Аудио #4: [ENG] DTS-HD MA 5.1 / 48 kHz / 3954 kbps / 24-bit (DTS Core: 5.1 / 48 kHz / 1509 kbps / 24-bit)
Аудио #5: [ENG] 48 kHz, AC3 Dolby Digital, 2/0 (L,R) ch, ~192 kbps - coment
субтитры: русские - Dakota Family Translators, английские
навигация по главам: 9 глав (не именных)

MediaInfo

Общее
Уникальный идентификатор : 187038756798358902122630640173709230893 (0x8CB65AAFFD674939AFD372CD126F832D)
Полное имя : D:\Im\Batman vs. Robin\Batman vs. Robin.2015.BDRemux 1080p.mkv
Формат : Matroska
Версия формата : Version 4 / Version 2
Размер файла : 18,3 Гбайт
Продолжительность : 1 ч. 20 м.
Режим общего битрейта : Переменный
Общий поток : 32,7 Мбит/сек
Название фильма : Batman vs. Robin.2015.BDRemux 1080p -Azureus-
Дата кодирования : UTC 2015-05-07 07:00:55
Программа кодирования : mkvmerge v7.8.0 ('River Man') 32bit built on Mar 27 2015 16:18:02
Библиотека кодирования : libebml v1.3.1 + libmatroska v1.4.2
DURATION : 01:19:16.042000000
NUMBER_OF_FRAMES : 912
NUMBER_OF_BYTES : 28665
_STATISTICS_WRITING_APP : mkvmerge v7.8.0 ('River Man') 32bit built on Mar 27 2015 16:18:02
_STATISTICS_WRITING_DATE_UTC : 2015-05-07 07:00:55
_STATISTICS_TAGS : BPS DURATION NUMBER_OF_FRAMES NUMBER_OF_BYTES
Видео
Идентификатор : 1
Формат : AVC
Формат/Информация : Advanced Video Codec
Профиль формата : High@L4.1
Параметр CABAC формата : Да
Параметр ReFrames формата : 2 кадра
Идентификатор кодека : V_MPEG4/ISO/AVC
Продолжительность : 1 ч. 20 м.
Вид битрейта : Переменный
Битрейт : 25,6 Мбит/сек
Ширина : 1920 пикселей
Высота : 1080 пикселей
Соотношение сторон : 16:9
Частота кадров : 23,976 кадра/сек
Цветовое пространство : YUV
Субдискретизация насыщенности : 4:2:0
Битовая глубина : 8 бит
Тип развёртки : Прогрессивная
Бит/(Пиксели*Кадры) : 0.515
Размер потока : 14,3 Гбайт (78%)
Язык : English
Default : Да
Forced : Нет
Аудио #1
Идентификатор : 2
Формат : DTS
Формат/Информация : Digital Theater Systems
Профиль формата : MA / Core
Идентификатор кодека : A_DTS
Продолжительность : 1 ч. 20 м.
Вид битрейта : Переменный
Битрейт : 1561 Кбит/сек / 1510 Кбит/сек
Каналы : 6 каналов
Расположение каналов : Front: L C R, Side: L R, LFE
Частота : 48,0 КГц
Битовая глубина : 24 бит
Метод сжатия : Без потерь / Lossy
Заголовок : MVO - FISH
Язык : Russian
Default : Да
Forced : Нет
Аудио #2
Идентификатор : 3
Формат : DTS
Формат/Информация : Digital Theater Systems
Профиль формата : MA / Core
Идентификатор кодека : A_DTS
Продолжительность : 1 ч. 20 м.
Вид битрейта : Переменный
Битрейт : 1561 Кбит/сек / 1510 Кбит/сек
Каналы : 6 каналов
Расположение каналов : Front: L C R, Side: L R, LFE
Частота : 48,0 КГц
Битовая глубина : 24 бит
Метод сжатия : Без потерь / Lossy
Заголовок : MVO - DuBDraG ProJECT
Язык : Russian
Default : Нет
Forced : Нет
Аудио #3
Идентификатор : 4
Формат : DTS
Формат/Информация : Digital Theater Systems
Профиль формата : MA / Core
Идентификатор кодека : A_DTS
Продолжительность : 1 ч. 20 м.
Вид битрейта : Переменный
Битрейт : 1561 Кбит/сек / 1510 Кбит/сек
Каналы : 6 каналов
Расположение каналов : Front: L C R, Side: L R, LFE
Частота : 48,0 КГц
Битовая глубина : 24 бит
Метод сжатия : Без потерь / Lossy
Заголовок : MVO - ZM-SHOW
Язык : Russian
Default : Нет
Forced : Нет
Аудио #4
Идентификатор : 5
Формат : DTS
Формат/Информация : Digital Theater Systems
Профиль формата : MA / Core
Идентификатор кодека : A_DTS
Продолжительность : 1 ч. 20 м.
Вид битрейта : Переменный
Битрейт : 1561 Кбит/сек / 1510 Кбит/сек
Каналы : 6 каналов
Расположение каналов : Front: L C R, Side: L R, LFE
Частота : 48,0 КГц
Битовая глубина : 24 бит
Метод сжатия : Без потерь / Lossy
Заголовок : ENG
Язык : English
Default : Нет
Forced : Нет
Аудио #5
Идентификатор : 6
Формат : AC-3
Формат/Информация : Audio Coding 3
Профиль формата : Dolby Digital
Расширение режима : CM (complete main)
Идентификатор кодека : A_AC3
Продолжительность : 1 ч. 20 м.
Вид битрейта : Постоянный
Битрейт : 192 Кбит/сек
Каналы : 2 канала
Расположение каналов : Front: L R
Частота : 48,0 КГц
Битовая глубина : 16 бит
Метод сжатия : С потерями
Размер потока : 110 Мбайт (1%)
Заголовок : ENG - coment
Язык : English
Default : Нет
Forced : Нет
Текст #1
Идентификатор : 7
Формат : UTF-8
Идентификатор кодека : S_TEXT/UTF8
Идентификатор кодека/Информация : UTF-8 Plain Text
Заголовок : Rus Sub - Dakota Family Translators
Язык : Russian
Default : Нет
Forced : Нет
Текст #2
Идентификатор : 8
Формат : UTF-8
Идентификатор кодека : S_TEXT/UTF8
Идентификатор кодека/Информация : UTF-8 Plain Text
Заголовок : Eng Sub
Язык : English
Default : Нет
Forced : Нет
Меню
00:00:00.000 : en:00:00:00.000
00:09:04.127 : en:00:09:04.127
00:20:18.551 : en:00:20:18.551
00:28:18.155 : en:00:28:18.155
00:39:18.273 : en:00:39:18.273
00:50:50.589 : en:00:50:50.589
01:01:55.253 : en:01:01:55.253
01:10:11.999 : en:01:10:11.999
01:16:51.982 : en:01:16:51.982
____________________________________________
Стою на раздаче до 5 дней.
Просьба скачавшим как можно дольше не покидать раздачу!
ВСЕМ ПРИЯТНОГО ПРОСМОТРА!_________________________________________

_________________
Показать сообщения:    

Текущее время: Сегодня 03:48

Часовой пояс: GMT



Вы не можете начинать темы
Вы не можете отвечать на сообщения
Вы не можете редактировать свои сообщения
Вы не можете удалять свои сообщения
Вы не можете голосовать в опросах
Вы не можете прикреплять файлы к сообщениям
Вы не можете скачивать файлы
Наши партнеры: интернет магазин Ивановского трикотажа textilla.ru