Бэтмен: Начало / Batman Begins (Кристофер Нолан / Christopher Nolan) [2005, США, Великобритания, боевик, триллер, драма, криминал, Blu-ray>DVD9 (Custom)] DUB + Original + Rus,En sub :: Ивановский Торрент трекер
Важное объявление!
У Нас Все раздачи мультитрекерные, при нуле пиров в релизах, можете смело вставать на закачку!
Статистика раздачи
Размер:     |    Зарегистрирован:     |    Скачан:     |   
Нет
 
     
 
 
Автор Сообщение

HUNTER

Стаж:
4 года 11 месяцев
Сообщений:
66112

Репутация: 101

[+] [-]
Вне форума [Профиль] [ЛС]

Бэтмен: Начало / Batman Begins
Страна: США, Великобритания
Жанр: боевик, триллер, драма, криминал
Год выпуска: 2005
Продолжительность: 02:19:54
Перевод: Профессиональный (дублированный)
Cубтитры: русские, английские.
Оригинальная аудиодорожка: английский
Режиссер: Кристофер Нолан
В ролях: Кристиан Бэйл, Лиам Нисон, Кэти Холмс, Гари Олдман, Майкл Кейн, Киллиан Мёрфи, Том Уилкинсон, Кен Ватанабе, Морган Фриман, Рутгер Хауэр и др.
Описание: История о происхождении легенды Брюса Уэйна, юного наследника огромного состояния, потерявшего своих родителей. Покинув родной Готэм, он отправляется в путешествие по миру. Многочисленные преграды и лишения закаляют его характер, а мудрый наставник помогает вновь обрести смысл жизни.
Легендарный герой, защитник слабых и борец с несправедливостью преображается у тебя на глазах. Вернувшись в Готэм, Бэтмен становится единственной преградой на пути у сил зла, готовых ввергнуть город во мрак беззакония…
Доп. информация: Видео и аудио взяты из Blue-Ray (34.43 GB), спасибо -Jackal-. Меню взято из DVD, спасибо vladwolf, субтитры скачены из сети. Видео сжималось в Carbon Coder по инструкции Mikky72. Особая благодарность TEPM1HAT0P за видеомануал.
Меню: Анимированное озвученное на английском языке
Сэмпл: http://multi-up.com/473476
Тип релиза: DVD9 (Custom)
Контейнер: DVD-Video
Видео: NTSC 720х480 (16:9) VBR
Аудио: Профессиональный (дублированный) (Dolby AC3, 6 ch, 448 Kbps)
Аудио 2: Английский (Dolby AC3, 6 ch, 448 Kbps)

MediaInfo

General
Complete name : F:\BLUE-RAY - DVD\BATMAN BEGINS\Batman Begins dvd9\VIDEO_TS\VTS_01_1.VOB
Format : MPEG-PS
File size : 1 024 MiB
Duration : 18mn 9s
Overall bit rate : 7 887 Kbps
Video
ID : 224 (0xE0)
Format : MPEG Video
Format version : Version 2
Format profile : Main@Main
Format settings, BVOP : Yes
Format settings, Matrix : Default
Duration : 18mn 9s
Bit rate mode : Variable
Bit rate : 6 834 Kbps
Nominal bit rate : 8 000 Kbps
Width : 720 pixels
Height : 480 pixels
Display aspect ratio : 16:9
Frame rate : 23.976 fps
Standard : NTSC
Color space : YUV
Chroma subsampling : 4:2:0
Bit depth : 8 bits
Scan type : Progressive
Scan order : 2:3 Pulldown
Compression mode : Lossy
Bits/(Pixel*Frame) : 0.825
Stream size : 887 MiB (87%)
Audio #1
ID : 128 (0x80)
Format : AC-3
Format/Info : Audio Coding 3
Mode extension : CM (complete main)
Duration : 18mn 8s
Bit rate mode : Constant
Bit rate : 448 Kbps
Channel(s) : 6 channels
Channel positions : Front: L C R, Side: L R, LFE
Sampling rate : 48.0 KHz
Bit depth : 16 bits
Compression mode : Lossy
Stream size : 58.2 MiB (6%)
Audio #2
ID : 129 (0x81)
Format : AC-3
Format/Info : Audio Coding 3
Mode extension : CM (complete main)
Duration : 18mn 8s
Bit rate mode : Constant
Bit rate : 448 Kbps
Channel(s) : 6 channels
Channel positions : Front: L C R, Side: L R, LFE
Sampling rate : 48.0 KHz
Bit depth : 16 bits
Compression mode : Lossy
Stream size : 58.2 MiB (6%)
Text #1
ID : 32 (0x20)
Format : RLE
Format/Info : Run-length encoding
Text #2
ID : 33 (0x21)
Format : RLE
Format/Info : Run-length encoding

Скриншоты настроек

Скрипт

LoadPlugin("C:\Program Files\FFMpegSource2\ffms2.dll") # подключение декодера
FFVideoSource("F:\BLUE-RAY - DVD\BATMAN BEGINS\Video.mkv") #открытие видео
LoadPlugin("C:\Program Files\AutoYUY2\AutoYUY2.dll") #подключение плагина
AutoYUY2() # конверсия цветового пространства
LoadPlugin("C:\Program Files\ColorMatrix\ColorMatrix.dll") #подключение плагина
ColorMatrix(mode="Rec.709->Rec.601", inputFR=false, clamp=0) # 16-235
#ColorMatrix(mode="Rec.709->Rec.601", inputFR=true, clamp=0) # 0-255
BicubicResize(720, 480, 0, 0.5) #ресайз методом Catmull-Rom spline
AddBorders (0,0,0,0) # добавление черных полос
AssumeFPS ("ntsc_film") #изменение частоты кадров под стандарт NTSC

Используемые программы

Видео:
Rhozet Carbon Coder - конвертация видео
ffmpegsource - индексатор
AviSynth 2.5 - обработка видео
Програмы для разборки/сборки ДВД:
tsMuxeR - разбор BD на потоки
PgcDemux - разбор DVD на потоки
MuxMan - сборка потоков в DVD
Работа со звуком:
Tranzcode - разборка аудиодорожек на wav-потоки
Sony Vegas Pro 10 - сборка ac3 дорожки
Работа с субтитрами:
Subtitle Workshop - сохранение в SSA формат
MaestroSBT - рендеринг субтитров в формат SST+BMP
DVDSubEdit - корректировка таймингов и цветокоррекция субтитров
Работа с меню и реавторинг:
DVDReMakePro - реавторинг диска
Adobe Photoshop - графическое редактирование меню

Точка перехода

Скриншоты меню

Скриншоты


_________________
Показать сообщения:    

Текущее время: Сегодня 02:17

Часовой пояс: GMT



Вы не можете начинать темы
Вы не можете отвечать на сообщения
Вы не можете редактировать свои сообщения
Вы не можете удалять свои сообщения
Вы не можете голосовать в опросах
Вы не можете прикреплять файлы к сообщениям
Вы не можете скачивать файлы