Важное объявление!
У Нас Все раздачи мультитрекерные, при нуле пиров в релизах, можете смело вставать на закачку!
 
Автор Сообщение

HUNTER

Стаж:
4 года 8 месяцев
Сообщений:
62083

Репутация: 101

[+] [-]
Вне форума [Профиль] [ЛС]


Бэтмен: Нападение на Аркхэм
Batman: Assault on Arkham
«Get ready to root for the bad guys»
-
Год выпуска: 2014
Страна: США
Жанр: мультфильм, боевик, триллер, криминал
Продолжительность: 01:15:56
Перевод:
Профессиональный (Двухголосый закадровый)
Любительский (Многоголосый закадровый) - Saint Sound
Любительский (Многоголосый закадровый) - Kapets's Studios
Любительский (Многоголосый закадровый) - ZM-SHOW
русские субтитры: есть-Режиссёр: Джей Олива : Jay Oliva, Этан Сполдинг : Ethan Spaulding-Роли озвучивали: Мэттью Грей Гублер, Джанкарло Эспозито, Нил МакДонаф, Джон Ди Маджио, Трой Бэйкер, Нолан Норт, Си Си Эйч Паундер, Кевин Конрой, Хинден Уолш, Дженнифер Хейл-ОписаниеСекретная правительственная организация формирует спец группу «Суицидальный отряд», состоящую из наемников и убийц, чтобы проникнуть в психиатрическую лечебницу Аркхам и добыть похищенную, засекреченную информацию, из рук заключенного — Эдварда Нигмы «Загадочника».- релиз: -- Работа с BDRemux'ом и звуком -Azureus-.
- Запись проф. перевода с т/к TV1000 Megahit HD и его синхронизация - xfiles.-Качество: BDRip 720p BDRemux 1080p
Формат: MKV
Видео: AVC 2 833 Kbps 1280 x 720 (1.778) 23.976 fps
Аудио #1: [RUS] 48 kHz, AC3 Dolby Digital, 5.1 ch, ~384 kbps
Аудио #2: [RUS] AC-3 640 Kbps 6 channels, 48.0 KHz - Saint Sound
Аудио #3: [RUS] AC-3 640 Kbps 6 channels, 48.0 KHz - Kapets's Studios
Аудио #4: [RUS] AC-3 640 Kbps 6 channels, 48.0 KHz - ZM-SHOW
Аудио #5: [ENG] AC-3 640 Kbps 6 channels, 48.0 KHz
субтитры: русские, русские - Dakota Family, украинские, английские (SDH)
навигация по главам: 9 глав (не именные)

MediaInfo | Log

Log
x264 [info]: frame I:1124 Avg QP:10.04 size:109912
x264 [info]: frame P:29661 Avg QP:11.56 size: 31835
x264 [info]: frame B:78440 Avg QP:12.85 size: 7788
x264 [info]: consecutive B-frames: 4.6% 7.7% 6.5% 53.7% 7.6% 5.8% 1.3% 6.9% 1.2% 3.2% 1.5%
x264 [info]: mb I I16..4: 11.5% 64.2% 24.3%
x264 [info]: mb P I16..4: 1.3% 10.6% 2.8% P16..4: 25.6% 29.6% 11.4% 3.0% 0.4% skip:15.4%
x264 [info]: mb B I16..4: 0.1% 0.8% 0.2% B16..8: 28.2% 15.5% 2.6% direct: 3.0% skip:49.6% L0:48.2% L1:46.8% BI: 5.0%
x264 [info]: 8x8 transform intra:70.4% inter:42.2%
x264 [info]: direct mvs spatial:100.0% temporal:0.0%
x264 [info]: coded y,uvDC,uvAC intra: 83.1% 69.5% 55.6% inter: 14.4% 8.1% 2.6%
x264 [info]: i16 v,h,dc,p: 31% 15% 11% 43%
x264 [info]: i8 v,h,dc,ddl,ddr,vr,hd,vl,hu: 14% 12% 14% 8% 9% 10% 10% 10% 13%
x264 [info]: i4 v,h,dc,ddl,ddr,vr,hd,vl,hu: 12% 10% 9% 10% 14% 12% 12% 10% 11%
x264 [info]: i8c dc,h,v,p: 37% 35% 17% 11%
x264 [info]: Weighted P-Frames: Y:1.5% UV:1.0%
x264 [info]: ref P L0: 54.5% 3.4% 16.0% 7.0% 5.3% 4.6% 3.9% 2.5% 2.3% 0.4% 0.0%
x264 [info]: ref B L0: 70.6% 12.8% 6.6% 3.3% 2.6% 2.2% 1.4% 0.5%
x264 [info]: ref B L1: 92.6% 7.4%
x264 [info]: kb/s:2947.93
x264 [total]: encoded 109225 frames, 8.12 fps, 2947.93 kb/s, duration 3:44:11.00
Format : Matroska
Format version : Version 4 / Version 2
File size : 3.13 GiB
Duration : 1h 15mn
Overall bit rate : 5 895 Kbps
Encoded date : UTC 2015-11-04 17:55:14
Writing application : mkvmerge v6.7.0 ('Back to the Ground') 32bit built on Jan 8 2014 15:03:17
Writing library : libebml v1.3.0 + libmatroska v1.4.1
Video
ID : 1
Format : AVC
Format/Info : Advanced Video Codec
Format profile : High@L4.1
Format settings, CABAC : Yes
Format settings, ReFrames : 9 frames
Codec ID : V_MPEG4/ISO/AVC
Duration : 1h 15mn
Bit rate : 2 833 Kbps
Width : 1 280 pixels
Height : 720 pixels
Display aspect ratio : 16:9
Frame rate mode : Constant
Frame rate : 23.976 fps
Color space : YUV
Chroma subsampling : 4:2:0
Bit depth : 8 bits
Scan type : Progressive
Bits/(Pixel*Frame) : 0.128
Stream size : 1.50 GiB (48%)
Title : Batman: Assault on Arkham (2014) [rutracker.org]
Writing library : x264 core 148 r2579kMod 73ae2d1
Encoding settings : cabac=1 / ref=9 / deblock=1:-3:-2 / analyse=0x3:0x133 / me=umh / subme=11 / psy=1 / fade_compensate=0.00 / psy_rd=1.00:0.05 / mixed_ref=1 / me_range=32 / chroma_me=1 / trellis=2 / 8x8dct=1 / cqm=0 / deadzone=21,11 / fast_pskip=0 / chroma_qp_offset=-3 / threads=12 / lookahead_threads=3 / sliced_threads=0 / nr=0 / decimate=1 / interlaced=0 / bluray_compat=0 / constrained_intra=0 / fgo=0 / bframes=10 / b_pyramid=2 / b_adapt=2 / b_bias=0 / direct=3 / weightb=1 / open_gop=0 / weightp=2 / keyint=250 / keyint_min=23 / scenecut=40 / intra_refresh=0 / rc_lookahead=60 / rc=crf / mbtree=0 / crf=16.6000 / qcomp=0.60 / qpmin=0 / qpmax=69 / qpstep=4 / vbv_maxrate=50000 / vbv_bufsize=62500 / crf_max=0.0 / nal_hrd=none / filler=0 / ip_ratio=1.40 / pb_ratio=1.30 / aq=3:0.90
Language : English
Default : Yes
Forced : No
Audio #1
ID : 2
Format : AC-3
Format/Info : Audio Coding 3
Mode extension : CM (complete main)
Format settings, Endianness : Big
Codec ID : A_AC3
Duration : 1h 15mn
Bit rate mode : Constant
Bit rate : 384 Kbps
Channel(s) : 6 channels
Channel positions : Front: L C R, Side: L R, LFE
Sampling rate : 48.0 KHz
Compression mode : Lossy
Stream size : 209 MiB (7%)
Title : DVO
Language : Russian
Default : Yes
Forced : No
Audio #2
ID : 3
Format : AC-3
Format/Info : Audio Coding 3
Mode extension : CM (complete main)
Format settings, Endianness : Big
Codec ID : A_AC3
Duration : 1h 15mn
Bit rate mode : Constant
Bit rate : 640 Kbps
Channel(s) : 6 channels
Channel positions : Front: L C R, Side: L R, LFE
Sampling rate : 48.0 KHz
Compression mode : Lossy
Stream size : 348 MiB (11%)
Title : MVO Saint Sound
Language : Russian
Default : No
Forced : No
Audio #3
ID : 4
Format : AC-3
Format/Info : Audio Coding 3
Mode extension : CM (complete main)
Format settings, Endianness : Big
Codec ID : A_AC3
Duration : 1h 15mn
Bit rate mode : Constant
Bit rate : 640 Kbps
Channel(s) : 6 channels
Channel positions : Front: L C R, Side: L R, LFE
Sampling rate : 48.0 KHz
Compression mode : Lossy
Stream size : 348 MiB (11%)
Title : MVO Kapets's Studios
Language : Russian
Default : No
Forced : No
Audio #4
ID : 5
Format : AC-3
Format/Info : Audio Coding 3
Mode extension : CM (complete main)
Format settings, Endianness : Big
Codec ID : A_AC3
Duration : 1h 15mn
Bit rate mode : Constant
Bit rate : 640 Kbps
Channel(s) : 6 channels
Channel positions : Front: L C R, Side: L R, LFE
Sampling rate : 48.0 KHz
Compression mode : Lossy
Stream size : 348 MiB (11%)
Title : MVO ZM-SHOW
Language : Russian
Default : No
Forced : No
Audio #5
ID : 6
Format : AC-3
Format/Info : Audio Coding 3
Mode extension : CM (complete main)
Format settings, Endianness : Big
Codec ID : A_AC3
Duration : 1h 15mn
Bit rate mode : Constant
Bit rate : 640 Kbps
Channel(s) : 6 channels
Channel positions : Front: L C R, Side: L R, LFE
Sampling rate : 48.0 KHz
Compression mode : Lossy
Stream size : 348 MiB (11%)
Title : Original
Language : English
Default : No
Forced : No
Text #1
ID : 7
Format : UTF-8
Codec ID : S_TEXT/UTF8
Codec ID/Info : UTF-8 Plain Text
Title : Full
Language : Russian
Default : No
Forced : No
Text #2
ID : 8
Format : UTF-8
Codec ID : S_TEXT/UTF8
Codec ID/Info : UTF-8 Plain Text
Title : Full Dakota Family
Language : Russian
Default : No
Forced : No
Text #3
ID : 9
Format : UTF-8
Codec ID : S_TEXT/UTF8
Codec ID/Info : UTF-8 Plain Text
Title : Full
Language : Ukrainian
Default : No
Forced : No
Text #4
ID : 10
Format : UTF-8
Codec ID : S_TEXT/UTF8
Codec ID/Info : UTF-8 Plain Text
Title : Full
Language : English
Default : No
Forced : No
Menu
00:00:00.000 : en:00:00:00.000
00:09:50.632 : en:00:09:50.632
00:20:56.797 : en:00:20:56.797
00:30:06.722 : en:00:30:06.722
00:38:57.418 : en:00:38:57.418
00:50:28.692 : en:00:50:28.692
00:59:18.472 : en:00:59:18.472
01:09:11.856 : en:01:09:11.856
01:12:53.160 : en:01:12:53.160

Скриншоты




_________________
Показать сообщения:    

Текущее время: Сегодня 21:48

Часовой пояс: GMT



Вы не можете начинать темы
Вы не можете отвечать на сообщения
Вы не можете редактировать свои сообщения
Вы не можете удалять свои сообщения
Вы не можете голосовать в опросах
Вы не можете прикреплять файлы к сообщениям
Вы не можете скачивать файлы
Наши партнеры: интернет магазин Ивановского трикотажа textilla.ru