Бэтмен и тайна женщины-летучей мыши / Batman: Mystery of the Batwoman (Курт Геда / Curt Geda) [2003, мультфильм, детектив, криминал, боевик, BDRip 1080p] 2xMVO + ENG :: Ивановский Торрент трекер
Важное объявление!
У Нас Все раздачи мультитрекерные, при нуле пиров в релизах, можете смело вставать на закачку!
Статистика раздачи
Размер:     |    Зарегистрирован:     |    Скачан:     |   
Нет
 
     
 
 
Автор Сообщение

HUNTER

Стаж:
4 года 11 месяцев
Сообщений:
66077

Репутация: 101

[+] [-]
Вне форума [Профиль] [ЛС]

Бэтмен и тайна женщины-летучей мыши / Batman: Mystery of the Batwoman
Страна: США
Жанр: мультфильм, детектив, криминал, боевик
Продолжительность: 01:14:49
Год выпуска: 2003
Перевод 1: Профессиональный (многоголосый закадровый) [R5]
Перевод 2: Профессиональный (многоголосый закадровый) [ТВ3]
Русские субтитры: нет
Режиссёр: Курт Геда / Curt Geda
Роли озвучивали: Кевин Конрой, Кимберли Брукс, Келли Рипа, Элиза Габриелли, Кира Седжвик, Дэвид Огден Стайерз, Кевин Майкл Ричардсон, Джон Вернон, Гектор Элизондо, Ефрем Цимбалист мл., Эли Мариентал, Тара Стронг, Боб Хатингс, Роберт Костанцо
Описание: Пингвин и Руперт Торн — криминальная когорта, которая собирается заняться контрабандой оружия. Но в Готэм Сити появился новый супер-герой, который имеет другие планы насчет этих предпринимателей — Женщина-летучая мышь! С суперсовременными приспособлениями и крепкими кулаками она стала настоящей грозой преступников…
Доп. информация:

IMDB User Rating: 6.7/10 (3,933 votes)
Сэмпл: http://multi-up.com/930657
Качество: BDRip 1080p
Формат: MKV
Видео: AVC, 1920x1080, 23.976 fps, 10000 kbps
Аудио 1: AC3, 48 kHz; 6 channels; 448 kbps [Русский, R5]
Аудио 2: AC3, 48 kHz; 2 channels; 192 kbps [Русский, ТВ3]
Аудио 3: DTS; 48 kHz; 6 channels; 1536 kbps [Английский]
Субтитры: отсутствуют

Подробные технические данные

General Unique ID : 222600118773066204868339049118020155964 (0xA777393329799E5AA5E184A6E1903A3C) Format : Matroska Format version : Version 4 / Version 2 File size : 6.34 GiB Duration : 1h 14mn Overall bit rate : 12.1 Mbps Encoded date : UTC 2013-12-08 15:58:54 Writing application : mkvmerge v6.5.0 ('Isn't she lovely') built on Oct 20 2013 12:50:05 Writing library : libebml v1.3.0 + libmatroska v1.4.1 Video #1 ID : 1 Format : AVC Format/Info : Advanced Video Codec Format profile : High@L4.1 Format settings, CABAC : Yes Format settings, ReFrames : 4 frames Codec ID : V_MPEG4/ISO/AVC Duration : 1h 14mn Bit rate : 10 000 Kbps Width : 1 920 pixels Height : 1 080 pixels Display aspect ratio : 16:9 Frame rate mode : Constant Frame rate : 23.976 fps Color space : YUV Chroma subsampling : 4:2:0 Bit depth : 8 bits Scan type : Progressive Bits/(Pixel*Frame) : 0.201 Stream size : 5.09 GiB (80%) Writing library : x264 core 129 r2245 bc13772 Encoding settings : cabac=1 / ref=4 / deblock=1:2:2 / analyse=0x3:0x113 / me=umh / subme=11 / psy=1 / psy_rd=0.90:0.02 / mixed_ref=1 / me_range=64 / chroma_me=1 / trellis=2 / 8x8dct=1 / cqm=0 / deadzone=21,11 / fast_pskip=0 / chroma_qp_offset=-3 / threads=6 / lookahead_threads=1 / sliced_threads=0 / nr=0 / decimate=1 / interlaced=0 / bluray_compat=0 / constrained_intra=0 / bframes=4 / b_pyramid=2 / b_adapt=2 / b_bias=0 / direct=1 / weightb=1 / open_gop=1 / weightp=2 / keyint=240 / keyint_min=23 / scenecut=40 / intra_refresh=0 / rc_lookahead=120 / rc=2pass / mbtree=1 / bitrate=10000 / ratetol=1.0 / qcomp=0.60 / qpmin=10 / qpmax=51 / qpstep=4 / cplxblur=20.0 / qblur=0.5 / vbv_maxrate=50000 / vbv_bufsize=50000 / nal_hrd=none / ip_ratio=1.40 / aq=1:1.00 Language : English Default : Yes Forced : No Audio #2 ID : 2 Format : AC-3 Format/Info : Audio Coding 3 Mode extension : CM (complete main) Format settings, Endianness : Big Codec ID : A_AC3 Duration : 1h 14mn Bit rate mode : Constant Bit rate : 448 Kbps Channel(s) : 6 channels Channel positions : Front: L C R, Side: L R, LFE Sampling rate : 48.0 KHz Bit depth : 16 bits Compression mode : Lossy Stream size : 240 MiB (4%) Title : MVO (R5) Language : Russian Default : Yes Forced : No Audio #3 ID : 3 Format : AC-3 Format/Info : Audio Coding 3 Mode extension : CM (complete main) Format settings, Endianness : Big Codec ID : A_AC3 Duration : 1h 14mn Bit rate mode : Constant Bit rate : 192 Kbps Channel(s) : 2 channels Channel positions : Front: L R Sampling rate : 48.0 KHz Bit depth : 16 bits Compression mode : Lossy Stream size : 103 MiB (2%) Title : MVO (TB3) Language : Russian Default : No Forced : No Audio #4 ID : 4 Format : DTS Format/Info : Digital Theater Systems Mode : 16 Format settings, Endianness : Big Codec ID : A_DTS Duration : 1h 14mn Bit rate mode : Constant Bit rate : 1 509 Kbps Channel(s) : 6 channels Channel positions : Front: L C R, Side: L R, LFE Sampling rate : 48.0 KHz Bit depth : 24 bits Compression mode : Lossy Stream size : 808 MiB (12%) Title : Original Language : English Default : No Forced : No

Скриншоты


_________________
Показать сообщения:    

Текущее время: Сегодня 03:58

Часовой пояс: GMT



Вы не можете начинать темы
Вы не можете отвечать на сообщения
Вы не можете редактировать свои сообщения
Вы не можете удалять свои сообщения
Вы не можете голосовать в опросах
Вы не можете прикреплять файлы к сообщениям
Вы не можете скачивать файлы