Бэтмен: Дурная кровь / Batman: Bad Blood (Джей Олива / Jay Oliva) [2016, США, Мультфильм, Приключения, Фантастика, BDRip] MVO :: Ивановский Торрент трекер
Важное объявление!
У Нас Все раздачи мультитрекерные, при нуле пиров в релизах, можете смело вставать на закачку!
Статистика раздачи
Размер:     |    Зарегистрирован:     |    Скачан:     |   
Нет
 
     
 
 
Автор Сообщение

HUNTER

Стаж:
4 года 11 месяцев
Сообщений:
66066

Репутация: 101

[+] [-]
Вне форума [Профиль] [ЛС]

-Бэтмен: Дурная кровь / Batman: Bad Blood-
-Страна: США
Жанр: Мультфильм, Приключения, Фантастика
Продолжительность: 01:12:41
Год выпуска: 2016-Перевод: Профессиональный (многоголосый закадровый)-Режиссёр: Джей Олива / Jay Oliva-Роли озвучивали: Гай Чарльз, Джеймс Гаррет, Эрни Хадсон, Ивонн Страховски, Трэвис Уиллингэм, Шон Маэр, Джейсон О’Мара, Стюарт Аллан, Морена Баккарин, Стивен Блум-Описание: В Готэме происходит неожиданное: некий еретик «убивает» Бэтмена, свидетелем чего становится Бэтвумен. Однако команде Летучей мыши горевать некогда, ведь зло не дремлет. Теперь оставшимся напарникам Бэтмена - Найтвингу (Дик Грейсон) и Робину (сын Бэтмена - Дэмиан Уэйн) - предстоит занять его пост и защищать жителей темного города.- - -Релиз: Twi7ter
Качество: BDRip (исх. Batman Bad Blood 2016 COMPLETE BLURAY-LAZERS)
Формат: AVI-Видео: XviD, 704x400 (16:9), 23.976 fps, ~2240 kbps avg, 0.33 bit/pixel
Аудио 1: 48 kHz, AC3 Dolby Digital, 2/0 (L,R) ch, ~256 kbps avg
Аудио 2: 48 kHz, AC3 Dolby Digital, 2/0 (L,R) ch, ~192 kbps avg-Субтитры: Отсутствуют-

MediaInfo

Complete name : C:\Users\1\Desktop\РАЗДАЧИ\Batman.Durnaja.krov.2016.P.BDRip.1400Mb_by_Twi7ter.aviFormat : AVIFormat/Info : Audio Video InterleaveFile size : 1.37 GiBDuration : 1h 12mnOverall bit rate : 2 702 KbpsMovie name : Batman.Durnaja.krov.2016.P.BDRip.1400Mb_by_Twi7terDirector : Twi7terGenre : Fantasy/AdventurWriting application : VirtualDubMod 1.5.10.3 (build 2550/release)Original source form/Name : Cartoon
VideoID : 0Format : MPEG-4 VisualFormat profile : Advanced Simple@L5Format settings, BVOP : 2Format settings, QPel : NoFormat settings, GMC : No warppointsFormat settings, Matrix : CustomCodec ID : XVIDCodec ID/Hint : XviDDuration : 1h 12mnBit rate : 2 240 KbpsWidth : 704 pixelsHeight : 400 pixelsDisplay aspect ratio : 16:9Frame rate : 23.976 (24000/1001) fpsColor space : YUVChroma subsampling : 4:2:0Bit depth : 8 bitsScan type : ProgressiveCompression mode : LossyBits/(Pixel*Frame) : 0.332Stream size : 1.14 GiB (83%)Writing library : XviD 73
Audio #1ID : 1Format : AC-3Format/Info : Audio Coding 3Mode extension : CM (complete main)Format settings, Endianness : BigCodec ID : 2000Duration : 1h 12mnBit rate mode : ConstantBit rate : 256 KbpsChannel(s) : 2 channelsChannel positions : Front: L RSampling rate : 48.0 KHzFrame rate : 31.250 fps (1536 spf)Compression mode : LossyStream size : 133 MiB (9%)Alignment : Aligned on interleavesInterleave, duration : 42 ms (1.00 video frame)Interleave, preload duratio : 512 ms
Audio #2ID : 2Format : AC-3Format/Info : Audio Coding 3Mode extension : CM (complete main)Format settings, Endianness : BigCodec ID : 2000Duration : 1h 12mnBit rate mode : ConstantBit rate : 192 KbpsChannel(s) : 2 channelsChannel positions : Front: L RSampling rate : 48.0 KHzFrame rate : 31.250 fps (1536 spf)Compression mode : LossyStream size : 99.8 MiB (7%)Alignment : Split accross interleavesInterleave, duration : 42 ms (1.00 video frame)Interleave, preload duratio : 500 ms

Скриншоты


_________________
Показать сообщения:    

Текущее время: Сегодня 20:59

Часовой пояс: GMT



Вы не можете начинать темы
Вы не можете отвечать на сообщения
Вы не можете редактировать свои сообщения
Вы не можете удалять свои сообщения
Вы не можете голосовать в опросах
Вы не можете прикреплять файлы к сообщениям
Вы не можете скачивать файлы