Важное объявление!
У Нас Все раздачи мультитрекерные, при нуле пиров в релизах, можете смело вставать на закачку!
 
Автор Сообщение

HUNTER

Стаж:
4 года 7 месяцев
Сообщений:
61546

Репутация: 101

[+] [-]
Вне форума [Профиль] [ЛС]

Бэтмен: Дурная кровь / Batman: Bad Blood
Страна: США
Жанр: Мультипликация
Продолжительность: 01:12:39
Год выпуска: 2016
Перевод 1: Профессиональный (многоголосый закадровый)
Перевод 2: Любительский (двухголосый закадровый) (Коровин Денис и Екатерина Дмитрова) объединение голосов "Nice Media" и «A'den Ne'tra & Siviel Fleym»
Русские субтитры: есть-Режиссёр: Джей Олива / Jay Oliva
Роли озвучивали: Гай Чарльз, Джеймс Гаррет, Эрни Хадсон, Ивонн Страховски, Трэвис Уиллингэм, Шон Маэр, Джейсон О’Мара, Стюарт Аллан, Морена Баккарин, Стивен Блум-Описание: В Готэме происходит неожиданное: некий еретик «убивает» Бэтмена, свидетелем чего становится Бэтвумен. Однако команде Летучей мыши горевать некогда, ведь зло не дремлет. Теперь оставшимся напарникам Бэтмена — Найтвингу (Дик Грейсон) и Робину (сын Бэтмена — Дэмиан Уэйн) — предстоит занять его пост и защищать жителей темного города.-Качество: WEB-DL 1080p
Формат: MKV
Видео: AVC, 1916x1076 (16:9), 23.976 fps, 4 982 Kbps (0.101 bit/pixel)
Аудио 1: AC-3, 48.0 KHz, 2 ch, 256 Kbps, CBR (Russian) MVO
Аудио 2: AC-3, 48.0 KHz, 2 ch, 192 Kbps, CBR (Russian) DVO
Аудио 2: AC-3, 48.0 KHz, 6 ch, 384 Kbps, CBR (English)
Субтитры: Russian, English
Семпл: Забираем тут

Подробные технические данные

GeneralUnique ID : 198047440292425262037094291831976516886 (0x94FE8CB0699F80ACB44B6231E0625D16)Complete name : Batman Bad Blood 2016 WEB-DL 1080p.mkvFormat : MatroskaFormat version : Version 4 / Version 2File size : 3.01 GiBDuration : 1h 12mnOverall bit rate : 5 927 KbpsEncoded date : UTC 2016-02-13 11:01:07Writing application : mkvmerge v8.8.0 ('Wind at my back') 64bitWriting library : libebml v1.3.3 + libmatroska v1.4.4DURATION : 01:12:39.232000000NUMBER_OF_FRAMES : 136226NUMBER_OF_BYTES : 139495424_STATISTICS_WRITING_APP : mkvmerge v8.8.0 ('Wind at my back') 64bit_STATISTICS_WRITING_DATE_UT : 2016-02-13 11:01:07_STATISTICS_TAGS : BPS DURATION NUMBER_OF_FRAMES NUMBER_OF_BYTES
VideoID : 1Format : AVCFormat/Info : Advanced Video CodecFormat profile : High@L4Format settings, CABAC : YesFormat settings, ReFrames : 4 framesCodec ID : V_MPEG4/ISO/AVCDuration : 1h 12mnBit rate : 4 977 KbpsWidth : 1 916 pixelsHeight : 1 076 pixelsDisplay aspect ratio : 16:9Frame rate mode : ConstantFrame rate : 23.976 fpsColor space : YUVChroma subsampling : 4:2:0Bit depth : 8 bitsScan type : ProgressiveBits/(Pixel*Frame) : 0.101Stream size : 2.53 GiB (84%)Language : EnglishDefault : YesForced : NoColor range : LimitedColor primaries : BT.709Transfer characteristics : BT.709Matrix coefficients : BT.709
Audio #1ID : 2Format : AC-3Format/Info : Audio Coding 3Mode extension : CM (complete main)Format settings, Endianness : BigCodec ID : A_AC3Duration : 1h 12mnBit rate mode : ConstantBit rate : 256 KbpsChannel(s) : 2 channelsChannel positions : Front: L RSampling rate : 48.0 KHzCompression mode : LossyStream size : 133 MiB (4%)Title : MVOLanguage : RussianDefault : YesForced : No
Audio #2ID : 3Format : AC-3Format/Info : Audio Coding 3Mode extension : CM (complete main)Format settings, Endianness : BigCodec ID : A_AC3Duration : 1h 12mnBit rate mode : ConstantBit rate : 192 KbpsChannel(s) : 2 channelsChannel positions : Front: L RSampling rate : 48.0 KHzCompression mode : LossyStream size : 99.8 MiB (3%)Title : DVO Коровин Денис и Екатерина ДмитроваLanguage : RussianDefault : NoForced : No
Audio #3ID : 4Format : AC-3Format/Info : Audio Coding 3Mode extension : CM (complete main)Format settings, Endianness : BigCodec ID : A_AC3Duration : 1h 12mnBit rate mode : ConstantBit rate : 384 KbpsChannel(s) : 6 channelsChannel positions : Front: L C R, Side: L R, LFESampling rate : 48.0 KHzCompression mode : LossyStream size : 200 MiB (6%)Language : EnglishDefault : NoForced : No
Text #1ID : 5Format : UTF-8Codec ID : S_TEXT/UTF8Codec ID/Info : UTF-8 Plain TextLanguage : RussianDefault : NoForced : No
Text #2ID : 6Format : UTF-8Codec ID : S_TEXT/UTF8Codec ID/Info : UTF-8 Plain TextLanguage : EnglishDefault : NoForced : No
Menu00:00:00.000 : en:100:05:12.000 : en:200:12:40.000 : en:300:19:06.000 : en:400:29:44.000 : en:500:40:32.000 : en:600:48:04.000 : en:701:00:29.000 : en:801:09:32.000 : en:9

Скриншоты



_________________
Показать сообщения:    

Текущее время: Сегодня 21:57

Часовой пояс: GMT



Вы не можете начинать темы
Вы не можете отвечать на сообщения
Вы не можете редактировать свои сообщения
Вы не можете удалять свои сообщения
Вы не можете голосовать в опросах
Вы не можете прикреплять файлы к сообщениям
Вы не можете скачивать файлы
Наши партнеры: интернет магазин Ивановского трикотажа textilla.ru