Ивановский Торрент трекер
Яндекс.Погода
 

[Цитировать]
HUNTER

Бэтмен будущего: Возвращение Джокера / Batman Beyond: Return of the Joker
-Страна: США
Жанр: Мультфильм, фантастика, боевик, по мотивам комикса
Продолжительность: 01:10:54
Год выпуска: 2000
Перевод 1: Профессиональный (дублированный) МОСТ ВИДЕО
Перевод 2: Профессиональный (многоголосый закадровый) ТВ3
Оригинальная аудио-дорожка: есть (английская)
Русские субтитры: есть-Режиссёр: Курт Геда / Curt Geda-Описание: Первый полнометражный мультфильм из серии БЭТМЭН БУДУЩЕГО!
И старому, и молодому Бэтмэнам не до смеха: самый опасный преступник всех времен возвращается из прошлого, чтобы мстить молодому Бэтмэну, Брюсу Уэйну и всему Готэму. Подлый, смертельно опасный, и, похоже, бессмертный Король Преступного мира возвращается, чтобы сеять зло и разрушение. Пытаясь разгадать тайну Джокера, молодой Бэтмэн, Терри МакГиннис, открывает величайший секрет старого Бэтмэна: он узнает, что на самом деле случилось в ночь его последней смертельной схватки с Джокером! Когда Брюс Вэйн практически уничтожен Джокером, Терри клянется отомстить за своего наставника.-Доп. материалы: есть НА ЯЗЫКЕ ОРИГИНАЛА с оригинальными субтитрами (аудиокомментарии создателей, фильм о создании, видеобиографии персонажей и многое другое)-Релиз от: -Благодарности:
Fikaloid - дубляж МОСТ ВИДЕО
lex2085 - оригинальный ДВД, стерео дорожка MVO
Bobropandavar - перерисовка меню
*Sergeant_am* - сборка
-Семпл: http://multi-up.com/1067785-Качество: DVD5 (Custom)
Формат: DVD-video-Видео: PAL, 4:3, 720x576, 25 fps, 4658 кб/с
Аудио 1: 48 kHz, AC3 Dolby Digital, 2/0 (L,R) ch, ~192.00 kbps avg (DUB)
Аудио 2: 48 kHz, AC3 Dolby Digital, 2/0 (L,R) ch, ~192.00 kbps avg (MVO-stereo)
Аудио 3: 48 kHz, AC3 Dolby Digital, 3/2 (L,C,R,l,r) + LFE ch, ~384.00 kbps avg (Eng)

DVDInfo Оригинала

Title: Projector
Size: 4.01 Gb ( 4 201 784 KBytes ) - DVD-5
Enabled regions: 1, 2, 3, 4, 5, 6
VTS_01 :
Play Length: 01:10:54+00:00:12+00:03:22+00:12:01+00:05:01+00:05:20+00:03:52
Video: PAL 4:3 (720x576) VBR
Audio:
English (Dolby AC3, 6 ch)
Francais (Dolby AC3, 6 ch)
Deutsch (Dolby AC3, 6 ch)
English (Dolby AC3, 2 ch)
English (Dolby AC3, 2 ch)
Subtitles:
English
Nederlands
Francais
Deutsch
Norsk
Polish
Menu Video:
PAL 16:9 (720x576) VBR
Auto Letterboxed
Menu Subtitles:
Not specified
Menu Language Unit :
Root Menu

Отчёт MediaInfo

Общее
Полное имя : C:\Бэтмен будущего. Возвращение Джокера\VTS_01_1.VOB
Формат : MPEG-PS
Размер файла : 1024 Мбайт
Продолжительность : 24 м.
Режим общего битрейта : Переменный
Общий поток : 5732 Кбит/сек
Видео
Идентификатор : 224 (0xE0)
Формат : MPEG Video
Версия формата : Version 2
Профиль формата : Main@Main
Параметр BVOP формата : Да
Параметр матрицы формата : По умолчанию
Параметр GOP формата : M=3, N=15
Продолжительность : 24 м.
Вид битрейта : Переменный
Битрейт : 4658 Кбит/сек
Ширина : 720 пикселей
Высота : 576 пикселей
Соотношение сторон : 16:9
Частота кадров : 25,000 кадров/сек
Стандарт вещания : PAL
Цветовое пространство : YUV
Субдискретизация насыщенности : 4:2:0
Битовая глубина : 8 бит
Метод сжатия : С потерями
Бит/(Пиксели*Кадры) : 0.449
Размер потока : 832 Мбайт (81%)
Основные цвета : BT.601 PAL
Характеристики трансфера : BT.470 System B, BT.470 System G
Коэффициенты матрицы : BT.601
Аудио #1
Идентификатор : 189 (0xBD)-128 (0x80)
Формат : AC-3
Формат/Информация : Audio Coding 3
Расширение режима : CM (complete main)
Параметр Endianness формата : Big
Режим смешивания : DVD-Video
Продолжительность : 24 м.
Вид битрейта : Постоянный
Битрейт : 192 Кбит/сек
Каналы : 2 канала
Расположение каналов : Front: L R
Частота : 48,0 КГц
Битовая глубина : 16 бит
Метод сжатия : С потерями
Задержка видео : -6 мс.
Размер потока : 34,3 Мбайт (3%)
Аудио #2
Идентификатор : 189 (0xBD)-129 (0x81)
Формат : AC-3
Формат/Информация : Audio Coding 3
Расширение режима : CM (complete main)
Параметр Endianness формата : Big
Режим смешивания : DVD-Video
Продолжительность : 24 м.
Вид битрейта : Постоянный
Битрейт : 192 Кбит/сек
Каналы : 2 канала
Расположение каналов : Front: L R
Частота : 48,0 КГц
Битовая глубина : 16 бит
Метод сжатия : С потерями
Задержка видео : -6 мс.
Размер потока : 34,3 Мбайт (3%)
Аудио #3
Идентификатор : 189 (0xBD)-130 (0x82)
Формат : AC-3
Формат/Информация : Audio Coding 3
Расширение режима : CM (complete main)
Параметр Endianness формата : Big
Режим смешивания : DVD-Video
Продолжительность : 24 м.
Вид битрейта : Постоянный
Битрейт : 384 Кбит/сек
Каналы : 6 каналов
Расположение каналов : Front: L C R, Side: L R, LFE
Частота : 48,0 КГц
Битовая глубина : 16 бит
Метод сжатия : С потерями
Задержка видео : -6 мс.
Размер потока : 68,6 Мбайт (7%)
Аудио #4
Идентификатор : 189 (0xBD)-131 (0x83)
Формат : AC-3
Формат/Информация : Audio Coding 3
Профиль формата : Dolby Digital
Расширение режима : CM (complete main)
Параметр Endianness формата : Big
Режим смешивания : DVD-Video
Продолжительность : 24 м.
Вид битрейта : Постоянный
Битрейт : 192 Кбит/сек
Каналы : 2 канала
Расположение каналов : Front: L R
Частота : 48,0 КГц
Битовая глубина : 16 бит
Метод сжатия : С потерями
Задержка видео : -6 мс.
Размер потока : 34,3 Мбайт (3%)
Текст #1
Идентификатор : 189 (0xBD)-32 (0x20)
Формат : RLE
Формат/Информация : Run-length encoding
Режим смешивания : DVD-Video
Текст #2
Идентификатор : 189 (0xBD)-33 (0x21)
Формат : RLE
Формат/Информация : Run-length encoding
Режим смешивания : DVD-Video
Текст #3
Идентификатор : 189 (0xBD)-34 (0x22)
Формат : RLE
Формат/Информация : Run-length encoding
Режим смешивания : DVD-Video
Текст #4
Идентификатор : 189 (0xBD)-36 (0x24)
Формат : RLE
Формат/Информация : Run-length encoding
Режим смешивания : DVD-Video
Текст #5
Идентификатор : 189 (0xBD)-37 (0x25)
Формат : RLE
Формат/Информация : Run-length encoding
Режим смешивания : DVD-Video
Меню

Используемые программы

PgcDemux (Разборка диска)
BeSweet+BeLight (Распаковка звука в формат wav)
Sony Vegas Pro (синхронизация аудио)
MuxMan (Сборка диска)
Adobe Photoshop (Редактирование пунктов меню)
Subtitle WorkShop, MaestroSBT (создание русских субтитров)
DVDRemakePro (Реавторинг DVD)

Скриншоты меню

Скриншоты

Показать сообщения:    

Текущее время: 17-Окт 03:12

Часовой пояс: UTC - 1


Вы не можете начинать темы
Вы не можете отвечать на сообщения
Вы не можете редактировать свои сообщения
Вы не можете удалять свои сообщения
Вы не можете голосовать в опросах
Вы не можете прикреплять файлы к сообщениям
Вы не можете скачивать файлы

!ВНИМАНИЕ!
Сайт не предоставляет электронные версии произведений, а занимается лишь коллекционированием и каталогизацией ссылок, присылаемых и публикуемых на форуме нашими читателями. Если вы являетесь правообладателем какого-либо представленного материала и не желаете, чтобы ссылка на него находилась в нашем каталоге, свяжитесь с нами, и мы незамедлительно удалим ее. Файлы для обмена на трекере предоставлены пользователями сайта, и администрация не несет ответственности за их содержание. Просьба не заливать файлы, защищенные авторскими правами, а также файлы нелегального содержания!