Ивановский Торрент трекер
Яндекс.Погода
 

[Цитировать]
HUNTER

Бэмби 2
Bambi II
- Год выпуска: 2006.
Страна: США.
Жанр: мультфильм, семейный.
Продолжительность: 01:12:00-Перевод:
- Профессиональный (дублированный).
- Профессиональный (многоголосый закадровый).
-Субтитры:
- Русские.
- Английские.
-Режиссёр: Брайан Пиментал / Brian Pimental.-Описание: После смерти матери, Бэмби воссоединяется со своим отцом, Большим принцем леса, который берется за воспитание молодого оленя и обучению разным лесным премудростям. Но внезапно, гордый родитель обнаруживает, что он тоже может кое-чему научиться от его энергичного молодого сына...-Качество: BDRip
Формат: MKV
Видео: x264, 1280х720, 2230 kbps, 23.976 fps.
Аудио:
  • ENG - DTS, 48.0 KHz, 5.1 ch, 1509 kbps.
  • RUS - AC3, 48.0 KHz, 5.1 ch, 384 kbps - Дублированный.
  • RUS - DTS, 48.0 KHz, 5.1 ch, 1509 kbps - Многоголосый, закадровый.
-

MediaInfo

Код: copyText_writeLink('this.parentNode.parentNode.nextSibling.nextSibling'); D:\Downloads\Bambi_2 720p.BDRip.mkv
General
Unique ID : 184975208640833899634193561768488767531 (0x8B28EDE8827915348F6028975F66902B)
Complete name : D:\Downloads\Bambi_2 720p.BDRip.mkv
Format : Matroska
Format version : Version 2
File size : 2.90 GiB
Duration : 1h 12mn
Overall bit rate : 5 747 Kbps
Movie name : Bambi II (2006) - Release for HDCLUB
Encoded date : UTC 2011-02-25 17:58:51
Writing application : mkvmerge v3.4.0 ('Rapunzel') built on May 15 2010 09:38:20
Writing library : libebml v0.8.0 + libmatroska v0.9.0
Video #1
ID : 1
Format : AVC
Format/Info : Advanced Video Codec
Format profile : High@L4.1
Format settings, CABAC : Yes
Format settings, ReFrames : 8 frames
Codec ID : V_MPEG4/ISO/AVC
Duration : 1h 12mn
Bit rate : 2 230 Kbps
Width : 1 280 pixels
Height : 720 pixels
Display aspect ratio : 16:9
Frame rate mode : Constant
Frame rate : 23.976 fps
Color space : YUV
Chroma subsampling : 4:2:0
Bit depth : 8 bits
Scan type : Progressive
Bits/(Pixel*Frame) : 0.101
Stream size : 1.13 GiB (39%)
Title : Release for HDCLUB
Writing library : x264 core 114 r1913 5fd3dce
Encoding settings : cabac=1 / ref=8 / deblock=1:-3:-3 / analyse=0x3:0x133 / me=umh / subme=10 / psy=1 / psy_rd=1.00:0.00 / mixed_ref=1 / me_range=32 / chroma_me=1 / trellis=2 / 8x8dct=1 / cqm=0 / deadzone=21,11 / fast_pskip=0 / chroma_qp_offset=-2 / threads=12 / sliced_threads=0 / nr=0 / decimate=0 / interlaced=0 / constrained_intra=0 / bframes=8 / b_pyramid=2 / b_adapt=2 / b_bias=0 / direct=3 / weightb=1 / open_gop=0 / weightp=2 / keyint=250 / keyint_min=23 / scenecut=40 / intra_refresh=0 / rc_lookahead=60 / rc=crf / mbtree=0 / crf=17.0 / qcomp=0.60 / qpmin=10 / qpmax=51 / qpstep=4 / vbv_maxrate=50000 / vbv_bufsize=62500 / crf_max=0.0 / nal_hrd=none / ip_ratio=1.40 / pb_ratio=1.30 / aq=1:0.80
Language : English
Default : No
Forced : No
Audio #2
ID : 2
Format : AC-3
Format/Info : Audio Coding 3
Mode extension : CM (complete main)
Format settings, Endianness : Big
Codec ID : A_AC3
Duration : 1h 12mn
Bit rate mode : Constant
Bit rate : 384 Kbps
Channel(s) : 6 channels
Channel positions : Front: L C R, Side: L R, LFE
Sampling rate : 48.0 KHz
Bit depth : 16 bits
Compression mode : Lossy
Stream size : 199 MiB (7%)
Title : AC3 5.1 @ 384 kbps - Дубляж, R5
Language : Russian
Default : Yes
Forced : No
Audio #3
ID : 3
Format : DTS
Format/Info : Digital Theater Systems
Mode : 16
Format settings, Endianness : Big
Codec ID : A_DTS
Duration : 1h 12mn
Bit rate mode : Constant
Bit rate : 1 509 Kbps
Channel(s) : 6 channels
Channel positions : Front: L C R, Side: L R, LFE
Sampling rate : 48.0 KHz
Bit depth : 24 bits
Compression mode : Lossy
Stream size : 781 MiB (26%)
Title : DTS 5.1 @ 1536 kbps - Многоголосый закадровый
Language : Russian
Default : No
Forced : No
Audio #4
ID : 4
Format : DTS
Format/Info : Digital Theater Systems
Mode : 16
Format settings, Endianness : Big
Codec ID : A_DTS
Duration : 1h 12mn
Bit rate mode : Constant
Bit rate : 1 509 Kbps
Channel(s) : 6 channels
Channel positions : Front: L C R, Side: L R, LFE
Sampling rate : 48.0 KHz
Bit depth : 24 bits
Compression mode : Lossy
Stream size : 781 MiB (26%)
Title : DTS 5.1 @ 1536 kbps
Language : English
Default : No
Forced : No
Text #5
ID : 5
Format : UTF-8
Codec ID : S_TEXT/UTF8
Codec ID/Info : UTF-8 Plain Text
Language : Russian
Default : No
Forced : No
Text #6
ID : 6
Format : UTF-8
Codec ID : S_TEXT/UTF8
Codec ID/Info : UTF-8 Plain Text
Language : English
Default : No
Forced : No
-

Скриншоты

Показать сообщения:    

Текущее время: 22-Окт 19:55

Часовой пояс: UTC - 1


Вы не можете начинать темы
Вы не можете отвечать на сообщения
Вы не можете редактировать свои сообщения
Вы не можете удалять свои сообщения
Вы не можете голосовать в опросах
Вы не можете прикреплять файлы к сообщениям
Вы не можете скачивать файлы

!ВНИМАНИЕ!
Сайт не предоставляет электронные версии произведений, а занимается лишь коллекционированием и каталогизацией ссылок, присылаемых и публикуемых на форуме нашими читателями. Если вы являетесь правообладателем какого-либо представленного материала и не желаете, чтобы ссылка на него находилась в нашем каталоге, свяжитесь с нами, и мы незамедлительно удалим ее. Файлы для обмена на трекере предоставлены пользователями сайта, и администрация не несет ответственности за их содержание. Просьба не заливать файлы, защищенные авторскими правами, а также файлы нелегального содержания!