Ивановский Торрент трекер
Яндекс.Погода
 

[Цитировать]
HUNTER

Бывший / Broken Страна: США
Жанр: триллер, драма
Год выпуска: 2006
Продолжительность: 01:33:00
Перевод: Профессиональный (многоголосый закадровый) Кинопоказ
Cубтитры: нет
Режиссер: Алан Уайт / Alan White
В ролях: Хэзер Грэм, Джереми Систо, Тесс Харпер, Джо Херсли, Джейк Бьюзи, Линда Хэмилтон, Марк Линн, Рэндолл Батинкофф, Майкл А. Гурджиан, Бьянка Лоусон
Описание: Начинающая певица Хоуп уезжает из Кливленда в Лос-Анджелес, ожидая, что её ждет блистательная карьера певицы. На пляже она знакомится с парнем по имени Уилл и они тут же влюбляются друг в друга. Однако, Уилл подсаживает Хоуп на героин, разрушив её мечты. Позже, она сбегает от Уилла, пытаясь вернусь свою жизнь в правильное русло и устраивается на работу в кафе Blue Star. но однажды ночью на пороге кафе появляется Уилл, который хочет вернуть её.
Ссылка на предыдущие и альтернативные раздачи
Сэмпл: http://rusfolder.com/42331184

Тип релиза: HDTV 1080i
Контейнер: TS
Видео: AVC/H.264, PAL, 1920х1080 (16:9), 25 fps, 8011 Kbps
Аудио: русский, MP-2, 48000 Hz, 192 Кбит/сек, 2 ch

MediaInfo

Общее
Идентификатор : 1 (0x1)
Полное имя : D:\Бывший.ts
Формат : MPEG-TS
Размер файла : 5,61 Гбайт
Продолжительность : 1 ч. 33 м.
Режим общего битрейта : Переменный
Общий поток : 8631 Кбит/сек
Максимальный общий битрейт : 35,5 Мбит/сек
Видео
Идентификатор : 4113 (0x1011)
Идентификатор меню : 1 (0x1)
Формат : AVC
Формат/Информация : Advanced Video Codec
Профиль формата : Main@L4.0
Параметр CABAC формата : Да
Параметр ReFrames формата : 3 кадра
Идентификатор кодека : 27
Продолжительность : 1 ч. 33 м.
Вид битрейта : Переменный
Битрейт : 8011 Кбит/сек
Максимальный битрейт : 40,0 Мбит/сек
Ширина : 1920 пикселей
Высота : 1080 пикселей
Соотношение сторон : 16:9
Частота кадров : 25,000 кадров/сек
Стандарт вещания : Component
Цветовое пространство : YUV
Субдискретизация насыщенности : 4:2:0
Битовая глубина : 8 бит
Тип развёртки : Чересстрочная
Порядок развёртки : Верхнее поле первое
Бит/(Пиксели*Кадры) : 0.155
Размер потока : 5,20 Гбайт (93%)
Аудио
Идентификатор : 4352 (0x1100)
Идентификатор меню : 1 (0x1)
Формат : MPEG Audio
Версия формата : Version 1
Профиль формата : Layer 2
Идентификатор кодека : 4
Продолжительность : 1 ч. 33 м.
Вид битрейта : Постоянный
Битрейт : 192 Кбит/сек
Каналы : 2 канала
Частота : 48,0 КГц
Метод сжатия : С потерями
Размер потока : 128 Мбайт (2%)
Язык : Russian

Скриншот c названием фильма

Скриншоты



Показать сообщения:    

Текущее время: 14-Дек 06:29

Часовой пояс: UTC ± 0


Вы не можете начинать темы
Вы не можете отвечать на сообщения
Вы не можете редактировать свои сообщения
Вы не можете удалять свои сообщения
Вы не можете голосовать в опросах
Вы не можете прикреплять файлы к сообщениям
Вы не можете скачивать файлы

!ВНИМАНИЕ!
Сайт не предоставляет электронные версии произведений, а занимается лишь коллекционированием и каталогизацией ссылок, присылаемых и публикуемых на форуме нашими читателями. Если вы являетесь правообладателем какого-либо представленного материала и не желаете, чтобы ссылка на него находилась в нашем каталоге, свяжитесь с нами, и мы незамедлительно удалим ее. Файлы для обмена на трекере предоставлены пользователями сайта, и администрация не несет ответственности за их содержание. Просьба не заливать файлы, защищенные авторскими правами, а также файлы нелегального содержания!