Важное объявление!
У Нас Все раздачи мультитрекерные, при нуле пиров в релизах, можете смело вставать на закачку!
Статистика раздачи
Размер:     |    Зарегистрирован:     |    Скачан:     |   
Нет
 
     
 
 
Автор Сообщение

HUNTER

Стаж:
5 лет
Сообщений:
68414

Репутация: 101

[+] [-]
Вне форума [Профиль] [ЛС]

Буч и Сандэнс: Ранние дни / Butch And Sundance: The Early Days
Страна: США
Жанр: Вестерн
Производство: 20th Century Fox
Год выпуска: 1979
Продолжительность: 01:44:36
Перевод: Профессиональный (многоголосый закадровый)
Cубтитры: русские
Режиссер: Ричард Лестер / Richard Lester
В ролях: Уильям Кэтт, Том Беренджер, Брайан Деннехи, Питер Уэллер, Джефф
Описание: Предыстория фильма "Буч Кэссиди и Сандэнс Кид". Захватывающая история о юношеских годах двух бандитов Буча Кэссиди (Том Беренджер) и Сандэнса Кида (Уильям Кэтт), полных захватывающих приключений, и лихорадочных попытках двух друзей стать знаменитыми и легендарными.
Сценарий: Аллен Бернс
Оператор: Ласло Ковач
Композитор: Патрик Уильямс
Сэмпл: http://multi-up.com/997352
Качество видео: HDTV 1080i
Формат видео: MPEG-4
Видео: AVC, 1920х1080, 16:9, 9601 Кбит/сек, 25 fps
Аудио 1: MP2, 224 Кбит/сек, 48 КГц, 2 канала
Аудио 2: AC3, 384 Кбит/сек, 48 КГц, 6 канала
Формат субтитров: Teletext

MediaInfo

Общее
Идентификатор : 16 (0x10)
Полное имя : Butch And Sundance_HD.ts
Формат : MPEG-TS
Размер файла : 7,85 Гбайт
Продолжительность : 1 ч. 44 м.
Режим общего битрейта : Переменный
Общий поток : 10,7 Мбит/сек
Видео
Идентификатор : 1902 (0x76E)
Идентификатор меню : 92 (0x5C)
Формат : AVC
Формат/Информация : Advanced Video Codec
Профиль формата : High@L4.0
Параметр CABAC формата : Да
Параметр ReFrames формата : 3 кадра
Параметр GOP формата : M=4, N=32
Идентификатор кодека : 27
Продолжительность : 1 ч. 44 м.
Битрейт : 9601 Кбит/сек
Ширина : 1920 пикселей
Высота : 1080 пикселей
Соотношение сторон : 16:9
Частота кадров : 25,000 кадров/сек
Стандарт вещания : PAL
Цветовое пространство : YUV
Субдискретизация насыщенности : 4:2:0
Битовая глубина : 8 бит
Тип развёртки : Чересстрочная
Порядок развёртки : Верхнее поле первое
Бит/(Пиксели*Кадры) : 0.185
Размер потока : 7,02 Гбайт (89%)
Основные цвета : BT.709
Характеристики трансфера : BT.709
Коэффициенты матрицы : BT.709
Аудио #1
Идентификатор : 2902 (0xB56)
Идентификатор меню : 92 (0x5C)
Формат : MPEG Audio
Версия формата : Version 1
Профиль формата : Layer 2
Идентификатор кодека : 4
Продолжительность : 1 ч. 44 м.
Вид битрейта : Постоянный
Битрейт : 224 Кбит/сек
Каналы : 2 канала
Частота : 48,0 КГц
Метод сжатия : С потерями
Задержка видео : 114 мс.
Размер потока : 168 Мбайт (2%)
Язык : std
Язык, дополнительно : Clean effects
Аудио #2
Идентификатор : 3902 (0xF3E)
Идентификатор меню : 92 (0x5C)
Формат : AC-3
Формат/Информация : Audio Coding 3
Расширение режима : CM (complete main)
Параметр Endianness формата : Big
Идентификатор кодека : 6
Продолжительность : 1 ч. 44 м.
Вид битрейта : Постоянный
Битрейт : 384 Кбит/сек
Каналы : 6 каналов
Расположение каналов : Front: L C R, Side: L R, LFE
Частота : 48,0 КГц
Битовая глубина : 16 бит
Метод сжатия : С потерями
Задержка видео : 158 мс.
Размер потока : 287 Мбайт (4%)
Язык : std
Язык, дополнительно : Clean effects
Текст
Идентификатор : 33 (0x21)-100
Идентификатор меню : 92 (0x5C)
Формат : Teletext
Меню
Идентификатор : 902 (0x386)
Идентификатор меню : 92 (0x5C)
Продолжительность : 1 ч. 44 м.
Список : 1902 (0x76E) (AVC) / 2902 (0xB56) (MPEG Audio, std) / 3902 (0xF3E) (AC-3, std) / 33 (0x21) ()
Язык : / std / std

Скриншоты




_________________
Показать сообщения:    

Текущее время: Сегодня 19:33

Часовой пояс: GMT



Вы не можете начинать темы
Вы не можете отвечать на сообщения
Вы не можете редактировать свои сообщения
Вы не можете удалять свои сообщения
Вы не можете голосовать в опросах
Вы не можете прикреплять файлы к сообщениям
Вы не можете скачивать файлы