Ивановский Торрент трекер
Яндекс.Погода
 

[Цитировать]
HUNTER

Бунт в форте Ларами / Revolt at Fort Laramie-Страна: США
Студия: Bel-Air Productions | United Artists
Жанр: вестерн
Год выпуска: 1957
Продолжительность: 01:10:10-Перевод: Профессиональный (двухголосый закадровый) НТВ+ /Ольга Плетнёва, Михаил Тихонов/
Cубтитры: нет
Оригинальная аудиодорожка: английский-Режиссер: Лесли Селандер / Lesley Selander
В ролях: Джон Денер, Грегг Палмер, Фрэнсис Хельм, Дон Гордон, Роберт Кис, Уильям «Билл» Филлипс, Кэйн Мэйсон...- | Релиз: -Описание: Фильм показывает войну, вывернутую наизнанку. Когда было объявлено о начале войны, форт стал своеобразной преградой между северянами и южанами. Некоторые солдаты из форта направляются на юг, но им предстоит пройти территорию индейцев сиу. Совсем скоро на отряд нападают. Посыльный возвращается в форт, чтобы передать безнадежные условия сиу, и теперь новое северное командование должно решить, что делать дальше. Время вышло, и когда отчаянный крик сиу пронзил форт Ларами с внешней стороны, солдаты начали убивать друг друга...-Семпл: http://sendfile.su/1138158-Тип релиза: HDTV 1080i
Контейнер: TS
Видео: 1920x1080i (16:9), 25.000 fps, AVC, ~6206 Kbps, 0.120 bits/pixel
Аудио 1: Русский, 48.0 KHz, MPEG-1 Audio layer 2, 2 ch, 192 kbps
Аудио 2: English, 48.0 KHz, MPEG-1 Audio layer 2, 2 ch, 192 kbps

MediaInfo

GeneralID : 1 (0x1)Complete name : Revolt at Fort Laramie 1957 MGMHD 1080i.rus.eng.tsFormat : MPEG-TSFile size : 3.40 GiBDuration : 1h 10mnOverall bit rate mode : VariableOverall bit rate : 6 936 KbpsMaximum Overall bit rate : 35.5 Mbps
VideoID : 4113 (0x1011)Menu ID : 1 (0x1)Format : AVCFormat/Info : Advanced Video CodecFormat profile : Main@L4Format settings, CABAC : YesFormat settings, ReFrames : 4 framesCodec ID : 27Duration : 1h 10mnBit rate : 6 206 KbpsWidth : 1 920 pixelsHeight : 1 080 pixelsDisplay aspect ratio : 16:9Frame rate : 25.000 fpsStandard : ComponentColor space : YUVChroma subsampling : 4:2:0Bit depth : 8 bitsScan type : InterlacedScan order : Top Field FirstBits/(Pixel*Frame) : 0.120Stream size : 3.04 GiB (89%)Color range : LimitedColor primaries : BT.709Transfer characteristics : BT.709Matrix coefficients : BT.709
Audio #1ID : 4352 (0x1100)Menu ID : 1 (0x1)Format : MPEG AudioFormat version : Version 1Format profile : Layer 2Codec ID : 4Duration : 1h 10mnBit rate mode : ConstantBit rate : 192 KbpsChannel(s) : 2 channelsSampling rate : 48.0 KHzCompression mode : LossyStream size : 96.4 MiB (3%)Language : Russian
Audio #2ID : 4353 (0x1101)Menu ID : 1 (0x1)Format : MPEG AudioFormat version : Version 1Format profile : Layer 2Codec ID : 4Duration : 1h 10mnBit rate mode : ConstantBit rate : 192 KbpsChannel(s) : 2 channelsSampling rate : 48.0 KHzCompression mode : LossyStream size : 96.4 MiB (3%)Language : English

Скриншоты



Показать сообщения:    

Текущее время: 15-Дек 02:49

Часовой пояс: UTC ± 0


Вы не можете начинать темы
Вы не можете отвечать на сообщения
Вы не можете редактировать свои сообщения
Вы не можете удалять свои сообщения
Вы не можете голосовать в опросах
Вы не можете прикреплять файлы к сообщениям
Вы не можете скачивать файлы

!ВНИМАНИЕ!
Сайт не предоставляет электронные версии произведений, а занимается лишь коллекционированием и каталогизацией ссылок, присылаемых и публикуемых на форуме нашими читателями. Если вы являетесь правообладателем какого-либо представленного материала и не желаете, чтобы ссылка на него находилась в нашем каталоге, свяжитесь с нами, и мы незамедлительно удалим ее. Файлы для обмена на трекере предоставлены пользователями сайта, и администрация не несет ответственности за их содержание. Просьба не заливать файлы, защищенные авторскими правами, а также файлы нелегального содержания!