Важное объявление!
У Нас Все раздачи мультитрекерные, при нуле пиров в релизах, можете смело вставать на закачку!
 
Автор Сообщение

mihis

[Профиль] [ЛС]

Бункер / The Bunker
Год выпуска: 1981
Страна: США, Франция, Time-Life Productions, CBS, NBO
Жанр: Военный, драма, исторический, биографический
Продолжительность: 02:31:03
Перевод: Авторский (одноголосый,закадровый) А. Дольский + Оригинал
Субтитры: Русские
Режиссер: Джордж Шефер
В ролях: Энтони Хопкинс, Ричард Джордан, Клифф Гормен, Джеймс Нафтон, Роберт Остин, Джулиан Феллоус, Микаэль Лонсдаль, Ив Бренвиль, Мартин Джарвис, Франк Гатлифф, Майкл Калвер, Майкл Китчен, Терренс Хардиман, Эдвард Хардвик, Эндрю Рэй, Пайпер Лори, Сьюзэн Блэйкли, Карл Хельд, Дэвид Кинг, Сара Маршалл, Иоанн Павел, Моррис Перри, Пэм Климент, Джон Шарп, Майкл Ширд, Тони Стидман, Пегги Франкстон, Жан-Мари Лемар, Роберт Пью
Описание: Фильм основан на книге воспоминаний Джеймса О’Доннелла, опубликованной в 1978 году. С полныи драматизмом показаны три последних месяца жизни Адольфа Гитлера и его окружения в подземном бункере рейхсканцелярии. Близится конец Третьего Рейха и Гитлер оказывается перед выбором - сдаться в плен или покончить жизнь самоубийством... Наиболее примечательным в фильме является изображение Энтони Хопкинсом - Адольфа Гитлера, за что он и выиграл премию Эмми. Актеры утверждали, его выступление было настолько хорошим, что те, кто играл немецких солдат, вставали по стойке смирно, когда Хопкинс приближался к ним.

Качество: BDRip-AVC
Формат: MKV
Видео кодек: H.264
Аудио кодек: AC3
Видео: 960x560 (1,714), 23,976 fps, 1427 kbps, 0.111 bit/pixel
Аудио #1: 48 kHz, AC3 Dolby Digital, 2 ch, ~448.00 kbps AVO
Аудио #2: 48 kHz, AC3 Dolby Digital, 2 ch, ~192.00 kbps Eng

Награды

Эмми, 1981 год
Победитель (1):
Лучшая мужская роль в мини-сериале или телефильме (Энтони Хопкинс)
Номинации (1):
Лучшая женская роль второго плана в мини-сериале или телефильме (Пайпер Лори)

MediaInfo

Общее
Уникальный идентификатор : 248900060492936380945395639405134243393 (0xBB4068707AF8C24DA49F9A463FD06641)
Полное имя : D:TorrentThe Bunker.1981.BDRip-AVC.mkv
Формат : Matroska
Версия формата : Version 4 / Version 2
Размер файла : 2,18 Гбайт
Продолжительность : 2 ч. 31 м.
Общий поток : 2069 Кбит/сек
Название фильма : Бункер / The Bunker (1981) BDRip-AVC rip by Rulya74
Дата кодирования : UTC 2013-05-23 05:08:56
Программа кодирования : mkvmerge v6.2.0 ('Promised Land') built on Apr 28 2013 12:22:01
Библиотека кодирования : libebml v1.3.0 + libmatroska v1.4.0
Видео
Идентификатор : 1
Формат : AVC
Формат/Информация : Advanced Video Codec
Профиль формата : High@L4.1
Параметр CABAC формата : Да
Параметр ReFrames формата : 9 кадров
Идентификатор кодека : V_MPEG4/ISO/AVC
Продолжительность : 2 ч. 31 м.
Битрейт : 1427 Кбит/сек
Ширина : 960 пикселей
Высота : 560 пикселей
Соотношение сторон : 1,714
Режим частоты кадров : Постоянный
Частота кадров : 23,976 кадра/сек
Цветовое пространство : YUV
Субдискретизация насыщенности : 4:2:0
Битовая глубина : 8 бит
Тип развёртки : Прогрессивная
Бит/(Пиксели*Кадры) : 0.111
Размер потока : 1,46 Гбайт (67%)
Библиотека кодирования : x264 core 132 r2310 76a5c3a
Настройки программы : cabac=1 / ref=9 / deblock=1:-3:-3 / analyse=0x3:0x113 / me=umh / subme=9 / psy=1 / psy_rd=1.80:0.02 / mixed_ref=1 / me_range=32 / chroma_me=1 / trellis=2 / 8x8dct=1 / cqm=0 / deadzone=21,11 / fast_pskip=0 / chroma_qp_offset=-3 / threads=2 / lookahead_threads=1 / sliced_threads=0 / nr=0 / decimate=1 / interlaced=0 / bluray_compat=0 / constrained_intra=0 / bframes=7 / b_pyramid=2 / b_adapt=2 / b_bias=0 / direct=3 / weightb=1 / open_gop=0 / weightp=0 / keyint=240 / keyint_min=22 / scenecut=40 / intra_refresh=0 / rc_lookahead=40 / rc=2pass / mbtree=0 / bitrate=1427 / ratetol=1.0 / qcomp=0.60 / qpmin=0 / qpmax=69 / qpstep=4 / cplxblur=20.0 / qblur=0.5 / vbv_maxrate=62500 / vbv_bufsize=78125 / nal_hrd=none / ip_ratio=1.40 / pb_ratio=1.30 / aq=2:1.00
Default : Да
Forced : Нет
Аудио #1
Идентификатор : 2
Формат : AC-3
Формат/Информация : Audio Coding 3
Расширение режима : CM (complete main)
Параметр Endianness формата : Big
Идентификатор кодека : A_AC3
Продолжительность : 2 ч. 31 м.
Вид битрейта : Постоянный
Битрейт : 448 Кбит/сек
Каналы : 2 канала
Расположение каналов : Front: L R
Частота : 48,0 КГц
Битовая глубина : 16 бит
Метод сжатия : С потерями
Размер потока : 484 Мбайт (22%)
Заголовок : Авторский (А. Дольский)
Язык : Russian
Default : Да
Forced : Нет
Аудио #2
Идентификатор : 3
Формат : AC-3
Формат/Информация : Audio Coding 3
Расширение режима : CM (complete main)
Параметр Endianness формата : Big
Идентификатор кодека : A_AC3
Продолжительность : 2 ч. 31 м.
Вид битрейта : Постоянный
Битрейт : 192 Кбит/сек
Каналы : 2 канала
Расположение каналов : Front: L R
Частота : 48,0 КГц
Битовая глубина : 16 бит
Метод сжатия : С потерями
Размер потока : 207 Мбайт (9%)
Заголовок : Оригинал
Язык : English
Default : Нет
Forced : Нет
Текст
Идентификатор : 4
Формат : UTF-8
Идентификатор кодека : S_TEXT/UTF8
Идентификатор кодека/Информация : UTF-8 Plain Text
Язык : Russian
Default : Да
Forced : Нет
 
Показать сообщения:    

Текущее время: Сегодня 12:38

Часовой пояс: GMT



Вы не можете начинать темы
Вы не можете отвечать на сообщения
Вы не можете редактировать свои сообщения
Вы не можете удалять свои сообщения
Вы не можете голосовать в опросах
Вы не можете прикреплять файлы к сообщениям
Вы не можете скачивать файлы