Ивановский Торрент трекер
Яндекс.Погода
 

[Цитировать]
димитри37

Бумбараш (2 серии)
Год выпуска: 1971
Жанр: музыкальная трагикомедия
Продолжительность: 02:06:31 (01:03:34 + 01:02:57)
Режиссер: Николай Рашеев, Абрам Народицкий
В ролях: Валерий Золотухин, Юрий Смирнов, Наталья Дмитриева, Екатерина Васильева, Александр Хочинский, Александр Белина, Леонид Бакштаев, Лев Дуров, Роман Ткачук, Николай Дупак, Маргарита Криницына, Лев Перфилов, Александр Филиппенко, Юрий Шерстнев
Описание: "Наплявать, наплявать, надоело воевать! Были мы солдаты, а теперь - до хаты..." Рядовой Бумбараш возвращается с Первой мировой войны в родное село. Неунывающий солдат был по ошибке объявлен погибшим. Об этом он узнал, когда вернулся в родные места: его коня и телегу продали, а невесту Варьку отдали другому. Признавать живым его не хотят, так как деньги на панихиду уже истрачены, а нехитрое крестьянское имущество "позаимствовано" родным братом. Признал его только друг, надевший на картуз красную звезду и уверенный в том, что после победы революции на каждую семью будет по дворцу. Но "чай с лимоном на балконе" сразу не завоюешь, а в стране тем временем полная неразбериха - красные, белые, зеленые, бандиты, анархисты. А жить очень хочется...
Доп. информация: По мотивам произведений Аркадия Гайдара (использован литературный материал неоконченной повести "Бумбараш", газетных рассказов о Лёвке Демченко, очерковой повести " В дни поражений и побед").
Сценарий: Евгений Митько
Операторы: Виталий Зимовец, Борис Мясников
Художник: Роман Адамович
Композитор: Владимир Дашкевич
Стихи: Юлий Ким (Михайлов)
Вокал: Валерий Золотухин, Александр Хочинский, Юрий Смирнов, Галина Туфтина
Награды: приз за режиссуру на ВТФ в Ташкенте (1973)
Ограничения на просмотр: для любой зрительской аудитории

Чтобы помнили...

После этого фильма Валерия Золотухина в Театре на Таганке стали называть Бумбарашка. А одним из партнеров Золотухина в "Бумбараше" был Александр Хочинский (01.03.1944-11.04.1998). Заслуженный артист России, он три десятилетия блистал на сцене Ленинградского ТЮЗа. В кино снимался нечасто. В его фильмографии такие картины, как "Странные мужчины Семеновой Екатерины", "По данным уголовного розыска", "Свидетельство о бедности", "Генерал". И, конечно же, принесший ему славу "Бумбараш". Первой женой Александра Хочинского была Ирина Асмус, ставшая впоследствии знаменитой клоунессой Ириской (она погибла 15 марта 1986 года в Гомеле, упав во время представления из-под купола цирка). Саша служил в армии, Ирина не выдержала разлуки. Вместе они прожили недолго. То, что Ира его оставила, для Хочинского было настоящей трагедией. Он долго переживал, женился только лет через семь на Марине Азизян (она теперь знаменитый художник). По натуре Хочинский был цыган, кочевник, человек без дома. Вдруг ни с того ни с сего сядет в электричку и едет до конечной станции и обратно. Дом появился у актера, когда он женился в третий раз, на актрисе Антонине Шурановой. После изгнания из Ленинградского ТЮЗа главного режиссера З.Я.Корогодского театр покинули многие его ученики и сподвижники. В том числе Хочинский с Шурановой. Какое-то время они работали в небольшом театрике "Интерателье", потом пытались создать театр "Глобус". А потом их приютил Театр сатиры. В период безвременья жили они очень тяжело. Часто - впроголодь. Народная артистка России Антонина Шуранова лепила из глины какие-то розочки на продажу. Хочинский - романтик, а не прагматик. Ему очень трудно было приспосабливаться, перестраиваться. Ему, человеку, который в жизни никого не предал, было не понять, как на это могут пойти другие. А поскольку востребованность оказалась крайне низкой, чаще пил. Когда Александру стало в очередной раз плохо, жена вызвала "скорую". У него остановилось сердце в 54 года. Напоследок он только улыбнулся...
Саундтрек: mp3, lossless
Качество видео: DVDRip
Формат видео: AVI
Видео:
1 серия - 720x544 (1.33:1), 25 fps, XviD 1.2.1, 2019 kbps avg, 0.22 bit/pixel
2 серия - 720x544 (1.33:1), 25 fps, XviD 1.2.1, 2042 kbps avg, 0.22 bit/pixel
Аудио: 48 kHz, AC3 Dolby Digital, 3/2 (L,C,R,l,r) + LFE ch, 384.00 kbps avg

MI

Полное имя : F:\Bumbarash\Part 1.avi
Формат : AVI
Формат/Информация : Audio Video Interleave
Размер файла : 1,07 Гбайт
Продолжительность : 1 ч. 3 м.
Общий поток : 2413 Кбит/сек
Программа кодирования : VirtualDubMod 1.5.10.3 (build 2550/release)
Библиотека кодирования : VirtualDubMod build 2550/release
Видео
Идентификатор : 0
Формат : MPEG-4 Visual
Профиль формата : Advanced Simple@L5
Параметр BVOP формата : 1
Параметр QPel формата : Нет
Параметр GMC формата : Без точки перехода
Параметр матрицы формата : Выборочная
Режим смешивания : Сжатый битовый поток
Идентификатор кодека : XVID
Идентификатор кодека/Подсказка : XviD
Продолжительность : 1 ч. 3 м.
Битрейт : 2019 Кбит/сек
Ширина : 720 пикселя
Высота : 544 пикселей
Соотношение сторон : 4:3
Частота кадров : 25,000 кадров/сек
Цветовое пространство : YUV
Субдискретизация насыщенности : 4:2:0
Битовая глубина : 8 бит
Тип развёртки : Прогрессивная
Метод сжатия : С потерями
Бит/(Пиксели*Кадры) : 0.217
Размер потока : 918 Мбайт (84%)
Библиотека кодирования : XviD 1.2.1 (UTC 2008-12-04)
Аудио
Идентификатор : 1
Формат : AC-3
Формат/Информация : Audio Coding 3
Расширение режима : CM (complete main)
Идентификатор кодека : 2000
Продолжительность : 1 ч. 3 м.
Вид битрейта : Постоянный
Битрейт : 384 Кбит/сек
Каналы : 6 каналов
Расположение каналов : Front: L C R, Side: L R, LFE
Частота : 48,0 КГц
Битовая глубина : 16 бит
Метод сжатия : С потерями
Размер потока : 175 Мбайт (16%)
Выравнивание : Разделение по промежуткам
Продолжительность промежутка : 40 мс. (1,00 видеокадр)
Время предзагрузки промежутка : 500 мс.
Полное имя : F:\Bumbarash\Part 2.avi
Формат : AVI
Формат/Информация : Audio Video Interleave
Размер файла : 1,07 Гбайт
Продолжительность : 1 ч. 2 м.
Общий поток : 2436 Кбит/сек
Программа кодирования : VirtualDubMod 1.5.10.3 (build 2550/release)
Библиотека кодирования : VirtualDubMod build 2550/release
Видео
Идентификатор : 0
Формат : MPEG-4 Visual
Профиль формата : Advanced Simple@L5
Параметр BVOP формата : 1
Параметр QPel формата : Нет
Параметр GMC формата : Без точки перехода
Параметр матрицы формата : Выборочная
Режим смешивания : Сжатый битовый поток
Идентификатор кодека : XVID
Идентификатор кодека/Подсказка : XviD
Продолжительность : 1 ч. 2 м.
Битрейт : 2042 Кбит/сек
Ширина : 720 пикселя
Высота : 544 пикселей
Соотношение сторон : 4:3
Частота кадров : 25,000 кадров/сек
Цветовое пространство : YUV
Субдискретизация насыщенности : 4:2:0
Битовая глубина : 8 бит
Тип развёртки : Прогрессивная
Метод сжатия : С потерями
Бит/(Пиксели*Кадры) : 0.220
Размер потока : 920 Мбайт (84%)
Библиотека кодирования : XviD 1.2.1 (UTC 2008-12-04)
Аудио
Идентификатор : 1
Формат : AC-3
Формат/Информация : Audio Coding 3
Расширение режима : CM (complete main)
Идентификатор кодека : 2000
Продолжительность : 1 ч. 2 м.
Вид битрейта : Постоянный
Битрейт : 384 Кбит/сек
Каналы : 6 каналов
Расположение каналов : Front: L C R, Side: L R, LFE
Частота : 48,0 КГц
Битовая глубина : 16 бит
Метод сжатия : С потерями
Размер потока : 173 Мбайт (16%)
Выравнивание : Разделение по промежуткам
Продолжительность промежутка : 40 мс. (1,00 видеокадр)
Время предзагрузки промежутка : 500 мс.

Скриншоты




Показать сообщения:    

Текущее время: 22-Окт 09:22

Часовой пояс: UTC - 1


Вы не можете начинать темы
Вы не можете отвечать на сообщения
Вы не можете редактировать свои сообщения
Вы не можете удалять свои сообщения
Вы не можете голосовать в опросах
Вы не можете прикреплять файлы к сообщениям
Вы не можете скачивать файлы

!ВНИМАНИЕ!
Сайт не предоставляет электронные версии произведений, а занимается лишь коллекционированием и каталогизацией ссылок, присылаемых и публикуемых на форуме нашими читателями. Если вы являетесь правообладателем какого-либо представленного материала и не желаете, чтобы ссылка на него находилась в нашем каталоге, свяжитесь с нами, и мы незамедлительно удалим ее. Файлы для обмена на трекере предоставлены пользователями сайта, и администрация не несет ответственности за их содержание. Просьба не заливать файлы, защищенные авторскими правами, а также файлы нелегального содержания!