Важное объявление!
У Нас Все раздачи мультитрекерные, при нуле пиров в релизах, можете смело вставать на закачку!
 
Автор Сообщение

HUNTER

Стаж:
4 года 7 месяцев
Сообщений:
61554

Репутация: 101

[+] [-]
Вне форума [Профиль] [ЛС]

Букашки. Приключение в Долине муравьевMinuscule - La vallee des fourmis perdues
Год выпуска: 2013
Производство: Франция
Жанр: мультфильм, приключения, семейный
Продолжительность: 01:24:55
Перевод: Не требуется
Субтитры: Отсутствуют
Оригинальная дорожка: Отсутствуют
Режиссер: Хелен Жиро, Томас Забо
Описание: Активные и любознательные черные муравьишки обнаруживают брошенную после пикника коробку с сахаром. Дружный отряд муравьишек вместе с Божьей коровкой решают переправить лакомство в муравейник. Но сладкая коробка уже успела нарушить спокойствие во всей долине, и свои планы на лакомство появились у других обитателей леса, в частности — у злобных красных муравьев-захватчиков. А, стало быть, на пути к заветной цели черным муравьишкам предстоит преодолеть массу опасностей и приключений.
Качество видео: DVB [сэмпл]
Видеокодек: MPEG2
Аудиокодек: AC3
Видео: 720x576 (16:9), 25 fps, 5362 Кбит/сек, 0.517 bit/pixel
Аудио: 48 kHz, 2 канала, 448 Кбит/сек
СкриншотыMediaInfo
Общее
Идентификатор : 1 (0x1)
Полное имя : Z:\Minuscule - La vallee des fourmis perdues_bySat.ts
Формат : MPEG-TS
Размер файла : 3,63 Гбайт
Продолжительность : 1 ч. 24 м.
Режим общего битрейта : Переменный
Общий поток : 6117 Кбит/сек
Видео
Идентификатор : 327 (0x147)
Идентификатор меню : 1 (0x1)
Формат : MPEG Video
Версия формата : Version 2
Профиль формата : Main@Main
Параметр BVOP формата : Да
Параметр матрицы формата : Выборочная
Параметр GOP формата : Variable
Идентификатор кодека : 2
Продолжительность : 1 ч. 24 м.
Вид битрейта : Переменный
Битрейт : 5362 Кбит/сек
Максимальный битрейт : 15,0 Мбит/сек
Ширина : 720 пикселей
Высота : 576 пикселей
Соотношение сторон : 16:9
Частота кадров : 25,000 кадров/сек
Стандарт вещания : PAL
Цветовое пространство : YUV
Субдискретизация насыщенности : 4:2:0
Битовая глубина : 8 бит
Тип развёртки : Чересстрочная
Порядок развёртки : Верхнее поле первое
Метод сжатия : С потерями
Бит/(Пиксели*Кадры) : 0.517
TimeCode_FirstFrame : 00:00:00:00
TimeCode_Source : Group of pictures header
Размер потока : 3,18 Гбайт (88%)
Аудио
Идентификатор : 427 (0x1AB)
Идентификатор меню : 1 (0x1)
Формат : AC-3
Формат/Информация : Audio Coding 3
Расширение режима : CM (complete main)
Параметр Endianness формата : Big
Идентификатор кодека : 6
Продолжительность : 1 ч. 24 м.
Вид битрейта : Постоянный
Битрейт : 448 Кбит/сек
Каналы : 2 канала
Расположение каналов : Front: L R
Частота : 48,0 КГц
Битовая глубина : 16 бит
Метод сжатия : С потерями
Размер потока : 272 Мбайт (7%)
Язык : Russian
Офорление Giaguaro^

_________________
Показать сообщения:    

Текущее время: Сегодня 07:01

Часовой пояс: GMT



Вы не можете начинать темы
Вы не можете отвечать на сообщения
Вы не можете редактировать свои сообщения
Вы не можете удалять свои сообщения
Вы не можете голосовать в опросах
Вы не можете прикреплять файлы к сообщениям
Вы не можете скачивать файлы
Наши партнеры: интернет магазин Ивановского трикотажа textilla.ru