Важное объявление!
У Нас Все раздачи мультитрекерные, при нуле пиров в релизах, можете смело вставать на закачку!
 
Автор Сообщение

HUNTER

Стаж:
4 года 8 месяцев
Сообщений:
62060

Репутация: 101

[+] [-]
Вне форума [Профиль] [ЛС]

Будущее с Джеймсом Вудсом / Futurescape with James Woods
Дата/Год выпуска: 2013
Страна: США
Жанр: Научно-познавательный
Продолжительность: 2x~00:43:00
Перевод: Студийный (одноголосый закадровый) Сергей Казаков
Русские субтитры: нет
Режиссер: Эмре Сахин / Emre Sahin
Телеканал: Discovery
Описание: Актёр Джеймс Вудс изучает последние технологические прорывы и их возможные последствия для будущего человечества. Каждая передача посвящена одной потрясающей идее или открытию, способному кардинально изменить привычную нам жизнь. Что происходит в ключевых областях науки? Чем это обернется для нас? Джеймс задаст важные вопросы, начнет дискуссию и при помощи уникальных технологий съемки и компьютерного моделирования покажет потрясающие картины нашего будущего.

Автор рипа: skorpionN
качество: HDTVRip
формат: MKV
Видео: Xvid 720x400 25fps 1799kbps
Аудио: Dolby AC3 48000Hz stereo 192kbps

Список выпусков/серий

01. Я знаю, что вы думаете / I Know What You're Thinking - Джон Вудс отправляется в путешествие в далекое будущее, чтобы изучить идеи и противоречия завтрашнего дня, которые начинают обретать форму уже сейчас.
02. Революция роботов / Robot Revolution
03. Время обмана / Cheating Time - Джеймс Вудс рассказывает зрителям о достижениях науки и последствиях, которые они могут иметь в будущем. Он задаст важные вопросы и покажет потрясающие картины нашего будущего.
04. Замена Богу / Replacing God
05. Пионеры галактики / Galactic Pioneers
06. Как стать суперчеловеком? / How to Be a Superhuman

MediaInfo

GeneralComplete name : E:\Films\Dokumentary\Futurescape with James Woods\01_I Know What You're Thinking.aviFormat : AVIFormat/Info : Audio Video InterleaveFile size : 629 MiBDuration : 43mn 56sOverall bit rate : 2 002 KbpsWriting application : VirtualDubMod 1.5.10.3 | www.virtualdub-fr.org || (build 2550/release)Writing library : VirtualDubMod build 2550/release
VideoID : 0Format : MPEG-4 VisualFormat profile : Advanced Simple@L5Format settings, BVOP : 2Format settings, QPel : NoFormat settings, GMC : No warppointsFormat settings, Matrix : Default (H.263)Codec ID : XVIDCodec ID/Hint : XviDDuration : 43mn 56sBit rate : 1 800 KbpsWidth : 720 pixelsHeight : 400 pixelsDisplay aspect ratio : 16:9Frame rate : 25.000 fpsColor space : YUVChroma subsampling : 4:2:0Bit depth : 8 bitsScan type : ProgressiveCompression mode : LossyBits/(Pixel*Frame) : 0.250Stream size : 566 MiB (90%)Writing library : XviD 1.2.1 (UTC 2008-12-04)
AudioID : 1Format : AC-3Format/Info : Audio Coding 3Mode extension : CM (complete main)Format settings, Endianness : BigCodec ID : 2000Duration : 43mn 56sBit rate mode : ConstantBit rate : 192 KbpsChannel(s) : 2 channelsChannel positions : Front: L RSampling rate : 48.0 KHzBit depth : 16 bitsCompression mode : LossyStream size : 60.3 MiB (10%)Alignment : Split accross interleavesInterleave, duration : 40 ms (1.00 video frame)Interleave, preload duration : 500 ms

Скриншоты


_________________
Показать сообщения:    

Текущее время: Сегодня 07:32

Часовой пояс: GMT



Вы не можете начинать темы
Вы не можете отвечать на сообщения
Вы не можете редактировать свои сообщения
Вы не можете удалять свои сообщения
Вы не можете голосовать в опросах
Вы не можете прикреплять файлы к сообщениям
Вы не можете скачивать файлы
Наши партнеры: интернет магазин Ивановского трикотажа textilla.ru