Важное объявление!
У Нас Все раздачи мультитрекерные, при нуле пиров в релизах, можете смело вставать на закачку!
Статистика раздачи
Размер:     |    Зарегистрирован:     |    Скачан:     |   
Нет
 
     
 
 
Автор Сообщение

HUNTER

Стаж:
5 лет
Сообщений:
67920

Репутация: 101

[+] [-]
Вне форума [Профиль] [ЛС]

Будем жить!-
Год выпуска: 2005
Страна: Россия
Жанр: Документальный
Продолжительность: 00:51:58
Перевод: Не требуется-Режиссер: Сергей Комаров-Описание: Фильм посвящен светлой памяти деятелей культуры, отдавших жизнь за победу народов Советского Союза в Великой Отечественной войне. О том, как помогали музы советским солдатам в Великой Отечественной войне, в фильме рассказывают: композитор, Народный артист СССР Тихон Хренников, писатель Борис Васильев, Заслуженный артист России Мухтарбек Кантемиров, Заслуженный деятель искусств СССР, кинооператор Владимир Цитрон, Народный художник СССР Борис Ефимов, народный артист РСФСР Александр Граве, Народный артист СССР Владимир Зельдин.-Доп. информация: Авторский текст читает Народный артист СССР Василий Лановой.-Качество: DVB-IPTV
Формат: MPEG-PS
Видео: MPEG-2, 704x576@768x576 (4/3), 25 fps, ~3112 Kbps (0.307 bit/pixel)
Аудио: MP2, 48 KHz, 2 ch, 192 Kbps-

MediaInfo

General
Complete name : ...\Будем жить! (2005) [DVB-IPTV].mpg
Format : MPEG-PS
File size : 1.22 GiB
Duration : 51mn 58s
Overall bit rate mode : Variable
Overall bit rate : 3 365 Kbps
Writing library : (c) 1998-2011 Womble Multimedia, Inc. / MPEG Video Wizard DVD 5.0.1.100 (03/2011) / Dec 19 2011
Video
ID : 224 (0xE0)
Format : MPEG Video
Format version : Version 2
Format profile : Main@Main
Format settings, BVOP : Yes
Format settings, Matrix : Custom
Format settings, GOP : Variable
Duration : 51mn 58s
Bit rate mode : Variable
Bit rate : 3 112 Kbps
Width : 704 pixels
Height : 576 pixels
Display aspect ratio : 4:3
Frame rate : 25.000 fps
Standard : PAL
Color space : YUV
Chroma subsampling : 4:2:0
Bit depth : 8 bits
Scan type : Interlaced
Scan order : Top Field First
Compression mode : Lossy
Bits/(Pixel*Frame) : 0.307
Time code of first frame : 00:00:00:00
Time code source : Group of pictures header
Stream size : 1.13 GiB (92%)
Writing library : (c) 1998-2011 Womble Multimedia, Inc. / MPEG Video Wizard DVD 5.0.1.100 (03/2011) / Dec 19 2011
Audio
ID : 192 (0xC0)
Format : MPEG Audio
Format version : Version 1
Format profile : Layer 2
Duration : 51mn 58s
Bit rate mode : Constant
Bit rate : 192 Kbps
Channel(s) : 2 channels
Sampling rate : 48.0 KHz
Compression mode : Lossy
Stream size : 71.4 MiB (6%)

_________________
Показать сообщения:    

Текущее время: Сегодня 08:56

Часовой пояс: GMT



Вы не можете начинать темы
Вы не можете отвечать на сообщения
Вы не можете редактировать свои сообщения
Вы не можете удалять свои сообщения
Вы не можете голосовать в опросах
Вы не можете прикреплять файлы к сообщениям
Вы не можете скачивать файлы