Важное объявление!
У Нас Все раздачи мультитрекерные, при нуле пиров в релизах, можете смело вставать на закачку!
 
Автор Сообщение

HUNTER

Стаж:
4 года 7 месяцев
Сообщений:
61614

Репутация: 101

[+] [-]
Вне форума [Профиль] [ЛС]

Брошенный рейс. По следам пропавшего "Боинга"
Дата/Год выпуска: 2014
Страна: Россия
Жанр: документальный
Продолжительность: 00:44:10
Перевод: Не требуется
Русские субтитры: нет
Оригинальная аудиодорожка: русский
Режиссер: Александр Евсюков
Телеканал: Россия 1
Описание: 8 марта 2014 года. Аэропорт Куала-Лумпур. В 00:41 по местному времени Boeing 777-200 вылетел рейсом MH370 в Пекин. Через две минуты после взлета он появился на радарах наземных служб аэропорта, которые далее вели его над воздушным пространством Малайзии. Когда самолет приблизился к южной границе Вьетнама, авиадиспетчер передал управление полетом наземным службам аэропорта Хошимин. Это был последний контакт с экипажем Боинга. В 1:22 самолет исчез с радаров. Больше его никто никогда не видел…
Этот фильм - попытка ответить на вопрос, что стало причиной крушения. И было ли это крушением? Авторы расследования собрали мнения экспертов в авиационной отрасли и военных специалистов в попытке понять, что же произошло, разобраться в версиях случившегося. И определить, где дала сбой авиационная безопасность. И дает до сих пор - ведь самолет так и не был найден. А значит, что-то подобное может произойти опять.
Автор: Дмитрий Щугорев
качество: SATRip
формат: AVI
Видео: 720x416 (1.73:1), 25 fps, XviD build 64 ~1744 kbps avg, 0.23 bit/pixel
Аудио: 48 kHz, MPEG Layer 3, 2 ch, ~128.00 kbps avg

MediaInfo

Формат : AVIФормат/Информация : Audio Video InterleaveРазмер файла : 595 МбайтПродолжительность : 44 м.Общий поток : 1882 Кбит/секБиблиотека кодирования : VirtualDub build 30009/release
ВидеоИдентификатор : 0Формат : MPEG-4 VisualПрофиль формата : Advanced Simple@L5Параметр BVOP формата : 2Параметр QPel формата : НетПараметр GMC формата : Без точки переходаПараметр матрицы формата : Default (MPEG)Идентификатор кодека : XVIDИдентификатор кодека/Подсказка : XviDПродолжительность : 44 м.Битрейт : 1745 Кбит/секШирина : 720 пикселейВысота : 416 пикселейСоотношение сторон : 1,731Частота кадров : 25,000 кадров/секЦветовое пространство : YUVСубдискретизация насыщенности : 4:2:0Битовая глубина : 8 битТип развёртки : ПрогрессивнаяМетод сжатия : С потерямиБит/(Пиксели*Кадры) : 0.233Размер потока : 551 Мбайт (93%)Библиотека кодирования : XviD 64
АудиоИдентификатор : 1Формат : MPEG AudioВерсия формата : Version 1Профиль формата : Layer 3Режим : Joint stereoРасширение режима : MS StereoИдентификатор кодека : 55Идентификатор кодека/Подсказка : MP3Продолжительность : 44 м.Вид битрейта : ПостоянныйБитрейт : 128 Кбит/секКаналы : 2 каналаЧастота : 48,0 КГцМетод сжатия : С потерямиРазмер потока : 40,4 Мбайт (7%)Выравнивание : Разделение по промежуткамПродолжительность промежутка : 40 мс. (1,00 видеокадр)Время предзагрузки промежутка : 500 мс.Библиотека кодирования : LAMEЄHА

Скриншоты


_________________
Показать сообщения:    

Текущее время: Сегодня 18:02

Часовой пояс: GMT



Вы не можете начинать темы
Вы не можете отвечать на сообщения
Вы не можете редактировать свои сообщения
Вы не можете удалять свои сообщения
Вы не можете голосовать в опросах
Вы не можете прикреплять файлы к сообщениям
Вы не можете скачивать файлы
Наши партнеры: интернет магазин Ивановского трикотажа textilla.ru