Важное объявление!
У Нас Все раздачи мультитрекерные, при нуле пиров в релизах, можете смело вставать на закачку!
Статистика раздачи
Размер:     |    Зарегистрирован:     |    Скачан:     |   
Нет
 
     
 
 
Автор Сообщение

HUNTER

Стаж:
5 лет
Сообщений:
67947

Репутация: 101

[+] [-]
Вне форума [Профиль] [ЛС]

-
Год выпуска: 2014
Страна: Япония
Жанр: комедия, мистика
Продолжительность: ТВ-сериал, 12 эп. по 25 мин.
Выпуск: c 05.01.2014 по 23.03.2014-Перевод:
  • русские субтитры от Jenia aka Zub & Мария Гостюхина (полные/вспомогательные)
-Режиссер: Тамура Котаро
Студия: BONES-Описание:
Ято – бродячий японский бог в образе худощавого синеглазого юноши в спортивном костюме. В синтоизме сила божества определяется числом верующих, а у нашего героя - ни храма, ни жрецов, все пожертвования умещаются в бутылке из-под сакэ. Парень в шейном платке подрабатывает мастером на все руки, малюя объявления на стенах, но дела идут совсем худо. Даже языкастая Маю, много лет работающая синки – Священным оружием Ято – покинула хозяина. А без оружия младший бог не сильнее обычного смертного мага, приходится (вот позор!) от злых духов прятаться. И кому вообще такой небожитель нужен?
Однажды симпатичная старшеклассница Хиёри Ики бросилась под грузовик, чтобы спасти какого-то парня в черном. Кончилось это плохо – девушка не погибла, но обрела способность «выходить» из тела и гулять на «той стороне». Встретив там Ято и узнав виновника своих бед, Хиёри убедила бездомного бога исцелить ее, ибо тот сам признал, что долго жить между мирами никто не может. Вот только, познакомившись поближе, Ики поняла, что у нынешнего Ято не хватает сил, чтобы решить ее проблему. Что ж, надо брать дело в свои руки и лично направить бродягу на путь истинный: сначала подыскать непутевому оружие, потом помочь заработать, а там, глядишь, что и получится. Не зря говорят: чего хочет женщина – хочет Бог!
© Hollow, World Art
Дословный перевод названия сериала - «Бродячий бог» или «Бездомный бог». Имя Ято значит «меч ночи», не зря его Священным оружием в сериале становится серебряная катана.-Информационные ссылки: AniDB || World Art || MAL-Качество: BDRip
Энкод: Winter - RG Pantheon
Тип видео: без хардсаба
Формат: mkv
Видео: x264 (Hi10p), 1280x720, ~3500 Kbps, 23.976 fps
Аудио JAP: Vorbis, 48000Hz, ~256 Kbps, 2ch
Аудио RUS 1: AC3, 48000Hz, ~192 Kbps, 2ch (внешними файлами)-

Список озвучек в раздаче

  • двухголосая (муж./жен.) от Zendos & Eladiel

Список эпизодов

01. A Housecat, a Stray God, and a Tail
02. Snow-like

Скриншоты


Подробные тех. данные

Общее
Уникальный идентификатор : 198068800949570137378539406693509484597 (0x9502A9D9CF5522C595D87BA17361D035)
Полное имя : Z:\Anime\720p\Noragami [BD] [720p]\[Winter] Noragami 01 [BDrip 1280x720 x264 Vorbis].mkv
Формат : Matroska
Версия формата : Version 2
Размер файла : 646 Мбайт
Продолжительность : 24 м.
Режим общего битрейта : Переменный
Общий поток : 3729 Кбит/сек
Дата кодирования : UTC 2014-03-28 18:55:02
Программа кодирования : mkvmerge v2.9.8 ('C'est le bon') built on Aug 13 2009 12:49:06
Библиотека кодирования : libebml v0.7.7 + libmatroska v0.8.1
Видео
Идентификатор : 1
Формат : AVC
Формат/Информация : Advanced Video Codec
Профиль формата : High 10@L4.1
Параметр CABAC формата : Да
Параметр ReFrames формата : 9 кадров
Идентификатор кодека : V_MPEG4/ISO/AVC
Продолжительность : 24 м.
Битрейт : 3399 Кбит/сек
Ширина : 1280 пикселей
Высота : 720 пикселей
Соотношение сторон : 16:9
Режим частоты кадров : Постоянный
Частота кадров : 23,976 кадра/сек
Цветовое пространство : YUV
Субдискретизация насыщенности : 4:2:0
Битовая глубина : 10 бит
Тип развёртки : Прогрессивная
Бит/(Пиксели*Кадры) : 0.154
Размер потока : 589 Мбайт (91%)
Библиотека кодирования : x264 core 132 r2309 3b1f1f7
Настройки программы : cabac=1 / ref=9 / deblock=1:-2:-2 / analyse=0x3:0x133 / me=umh / subme=9 / psy=1 / psy_rd=0.90:0.00 / mixed_ref=1 / me_range=24 / chroma_me=1 / trellis=2 / 8x8dct=1 / cqm=0 / deadzone=21,11 / fast_pskip=1 / chroma_qp_offset=-2 / threads=12 / lookahead_threads=2 / sliced_threads=0 / nr=0 / decimate=0 / interlaced=0 / bluray_compat=0 / constrained_intra=0 / bframes=8 / b_pyramid=2 / b_adapt=2 / b_bias=0 / direct=1 / weightb=1 / open_gop=0 / weightp=2 / keyint=250 / keyint_min=23 / scenecut=40 / intra_refresh=0 / rc=crf / mbtree=0 / crf=15.6 / qcomp=0.70 / qpmin=9 / qpmax=40 / qpstep=4 / ip_ratio=1.40 / pb_ratio=1.30 / aq=1:0.90 / zones=1114,1194,b=1.3/5773,7025,b=1.3
Default : Нет
Forced : Нет
Аудио
Идентификатор : 2
Формат : Vorbis
Параметр Floor формата : 1
Идентификатор кодека : A_VORBIS
Продолжительность : 24 м.
Вид битрейта : Переменный
Битрейт : 256 Кбит/сек
Каналы : 2 канала
Частота : 48,0 КГц
Метод сжатия : С потерями
Размер потока : 44,4 Мбайт (7%)
Библиотека кодирования : libVorbis (Schaufenugget) (20101101 (Schaufenugget))
Язык : Japanese
Default : Да
Forced : Нет
- -

Информация о релизе

  • Выбор видео, перевода, озвучки, а также типа сборки материала осуществляется релизером и не подлежит обсуждению. Если вы считаете, что раздаваемый материал противоречит правилам раздела "Аниме" rutracker.org, сообщите об этом одному из модераторов раздела.
  • В случае появления нового материала или же лучшего по качеству материала релизер оставляет за собой право обновить раздачу. В этом случае вам необходимо ознакомиться с изменениями (добавлениями) и перекачать торрент.
  • Данный релиз предназначен для просмотра на ПК. Воспроизведение на иных проигрывателях не гарантируется. Для просмотра рекомендуется Media Player Classic с установленным пакетом кодеков K-Lite.
  • Данный релиз содержит 10-битное видео (Hi10p). Для корректного воспроизведения обязательно используйте кодеки, поддерживающие 10-битное видео.
    Обсудить проблемы с воспроизведением и получить дополнительную информацию можно здесь.

  • Данный релиз предназначен для просмотра с внешними субтитрами и внешними звуковыми дорожками.
    • Для просмотра с внешней звуковой дорожкой нужно:
      перекинуть файлы .mka из папки "RUS Sound [<автор(ы) озвучки>]" в одну папку с видео и переключить звуковую дорожку в плеере при просмотре. Как это сделать в разных плеерах подробно описано здесь.

    • Для просмотра с субтитрами нужно:
      перекинуть файлы .ass из папки "RUS Subtitles [<автор(ы) перевода>]" в одну папку с видео - плеер подгрузит их автоматически при открытии видео.
  • Если у вас возникли проблемы с просмотром, не связанные с описанным выше, сообщите о них автору раздачи посредством сообщения в теме или ЛС Aglenn.

_________________
Показать сообщения:    

Текущее время: Сегодня 14:54

Часовой пояс: GMT



Вы не можете начинать темы
Вы не можете отвечать на сообщения
Вы не можете редактировать свои сообщения
Вы не можете удалять свои сообщения
Вы не можете голосовать в опросах
Вы не можете прикреплять файлы к сообщениям
Вы не можете скачивать файлы