Ивановский Торрент трекер
Яндекс.Погода
 

[Цитировать]
HUNTER

Бритва / Одетый для убийства / Dressed to Kill / Criterion Collection#770«The latest fashion in murder»
Страна:СШАСтудия:Cinema 77 Films, Filmways Pictures.Жанр:Триллер, ДетективГод выпуска:1980
Продолжительность:01:45:08Производство:The Criterion Collection #770Перевод 1:Профессиональный (Двухголосый закадровый)Перевод 2:Авторский (одноголосый закадровый) Антон Карповский
Cубтитры:Английские
Премьера (мир):25.07.1980
Режиссер:Брайан Де Пальма / Brian De PalmaВ ролях:Майкл Кейн — Доктор Роберт Эллиот
Энджи Дикинсон — Кейт Миллер
Нэнси Аллен — Лиз Блейк
Кит Гордон — Питер Миллер
Деннис Франц — Детектив Марино
Дэвид Маргулис — Доктор Леви
Описание:Она называет себя Бобби — высокая блондинка с ненасытным желанием убивать. Согласно записям доктора Эллиота, Бобби была его пациенткой, но перешла к другому врачу. Острая бритва, которая служит Бобби орудием убийства, была украдена из роскошного кабинета доктора Эллиота в престижном районе Нью-Йорка, в котором он ведет свою успешную психиатрическую практику.
Очередной жертвой Бобби становится Кейт, другая пациентка доктора Эллиота, страдавшая от столь ярких эротических фантазий, что сама порой не могла отделить их от реальности. Проститутка Лиз случайно становится свидетельницей этого преступления, сразу же превратившись в объект преследования для убийцы и в подозреваемую для полиции. Только она сможет пролить свет на тайну высокой блондинки, если, конечно, ей удастся остаться в живых.
Доп. информация:Исходник найден в сети.Звук взяты из раздачи Core_soul-http://rutracker.org/forum/viewtopic.php?t=5103633.Огромное Спасибо Всем, без чьей помощи этот релиз не состоялся бы!Сценарий:Брайан Де ПальмаПродюсер:Джордж Литто, Фред С. Карузо, Сэмюэл З. АркоффОператор:Ральф Д. БоудКомпозитор:Пино ДонаджоХудожник:Гари Уайст, Гари Джонс, Энн РотМонтаж:Джералд Б. Гринберг

Знаете ли вы, что...

Награды и номинации


Рецензия

Софт

PgcDemux 1.2.0.5 - разделение компонентов диска на файлы.
BeHappy + BeLight - AC3 -> Wav.
Sound Forge pro 10 - Wav -Синхронизация звука.
MuxMan DVD authoring Professional 0.16.8 - мультиплексирование и авторинг.
DVDRemake Pro 3.6.4 - реавторинг DVD.
DVD Shrink 3.2 - Сэмпл.
-- Точка перехода.

Бонусы:(Без перевода) Диск 1-2

. New, restored 4K digital transfer of director Brian De Palma’s preferred
unrated version, supervised by the director.
. New conversation between De Palma and filmmaker Noah Baumbach
. New interviews with actor Nancy Allen, producer George Litto, composer
Pino Donaggio, shower-scene body double Victoria Lynn Johnson, and poster
photographic art director Stephen Sayadian
. The Making of “Dressed to Kill,” a 2001 documentary
. New profile of cinematographer Ralf Bode, featuring filmmaker Michael Apted
. Interview with actor-director Keith Gordon from 2001
. Pieces from 2001 about the different versions of the film and the cuts made
to avoid an X rating
. Gallery of storyboards by De Palma
. Trailer
Меню:Английский, анимированное, озвученное.Сэмпл Диск 1:https://www.sendspace.com/file/fslnt4Сэмпл Диск 2:https://www.sendspace.com/file/8xfdht
Тип релиза:DVD9 (Custom) + DVD9
Контейнер:DVD-Video
Видео:NTSC 16:9 (720x480) VBR, Auto Letterboxed, 8287 Кбит/сек, 23,976 (24000/1001) кадра/секАудио 1:Русский:AC3, 2 ch, 48.0 KHz, 192 Кбит/сек / Профессиональный (Двухголосый закадровый)
Аудио 2:Русский:AC3, 2 ch, 48.0 KHz, 192 Кбит/сек / Авторский (одноголосый закадровый) Антон КарповскийАудио 3:Английский:AC3, 1 ch, 48.0 KHz, 384 Кбит/сек / Оригинал
Формат субтитров:prerendered (DVD/IDX+SUB)

Dvd Info Диск 1

Title: Диск 1
Size: 7.15 Gb ( 7 496 436,00 KBytes ) - DVD-9
Enabled regions: 1, 2, 3, 4, 5, 6, 7, 8
VTS_01 :
Play Length: 00:00:00
Video: NTSC 16:9 (720x480) VBR, Auto Letterboxed
VTS_02 :
Play Length: 01:45:08
Video: NTSC 16:9 (720x480) VBR, Auto Letterboxed
Audio:
Russian (Dolby AC3, 2 ch)
Russian (Dolby AC3, 2 ch)
English (Dolby AC3, 1 ch)
Subtitles:
English
VTS_03 :
Play Length: 00:00:20
Video: NTSC 16:9 (720x480) VBR, Auto Pan&Scan
VTS_04 :
Play Length: 00:02:10
Video: NTSC 16:9 (720x480) VBR, Auto Letterboxed
Audio:
English (Dolby AC3, 1 ch)
VTS_05 :
Play Length: 00:00:00
Video: NTSC 4:3 (720x480) VBR

Dvd Info Диск 2

Title: Диск 2
Size: 6.90 Gb ( 7 232 478,00 KBytes ) - DVD-9
Enabled regions: 1, 2, 3, 4, 5, 6, 7, 8
VTS_01 :
Play Length: 00:00:00
Video: NTSC 16:9 (720x480) VBR, Auto Letterboxed
VTS_02 :
Play Length: 00:43:49
Video: NTSC 4:3 (720x480) VBR
Audio:
English (Dolby AC3, 2 ch)
VTS_03 :
Play Length: 00:10:39
Video: NTSC 16:9 (720x480) VBR, Auto Letterboxed
Audio:
English (Dolby AC3, 1 ch)
VTS_04 :
Play Length: 00:16:10
Video: NTSC 16:9 (720x480) VBR, Auto Letterboxed
Audio:
English (Dolby AC3, 1 ch)
VTS_05 :
Play Length: 00:15:40
Video: NTSC 16:9 (720x480) VBR, Auto Letterboxed
Audio:
Italiano (Dolby AC3, 2 ch)
Subtitles:
English
VTS_06 :
Play Length: 00:05:14
Video: NTSC 4:3 (720x480) VBR
Audio:
English (Dolby AC3, 1 ch)
VTS_07 :
Play Length: 00:09:49
Video: NTSC 4:3 (720x480) VBR
Audio:
English (Dolby AC3, 2 ch)
VTS_08 :
Play Length: 00:06:04
Video: NTSC 4:3 (720x480) VBR
Audio:
English (Dolby AC3, 2 ch)
VTS_09 :
Play Length: 00:12:02
Video: NTSC 16:9 (720x480) VBR, Auto Letterboxed
Audio:
English (Dolby AC3, 1 ch)
VTS_10 :
Play Length: 00:08:41
Video: NTSC 16:9 (720x480) VBR, Auto Letterboxed
Audio:
English (Dolby AC3, 1 ch)
VTS_11 :
Play Length: 00:19:24
Video: NTSC 16:9 (720x480) VBR, Auto Letterboxed
Audio:
English (Dolby AC3, 1 ch)
VTS_12 :
Play Length: 00:10:14
Video: NTSC 16:9 (720x480) VBR, Auto Letterboxed
Audio:
English (Dolby AC3, 1 ch)
VTS_13 :
Play Length: 00:00:24
Video: NTSC 16:9 (720x480) VBR, Auto Letterboxed
Subtitles:
English
VTS_14 :
Play Length: 00:00:00
Video: NTSC 4:3 (720x480) VBR

Mediainfo Диск 1

Общее
Полное имя : F:\Dressed to Kill DVD-9_Custom+DVD-9_Criterion#770\Диск 1\VIDEO_TS\VTS_02_1.VOB
Формат : MPEG-PS
Размер файла : 1024 Мбайт
Продолжительность : 15 м.
Режим общего битрейта : Переменный
Общий поток : 9238 Кбит/сек
Видео
Идентификатор : 224 (0xE0)
Формат : MPEG Video
Версия формата : Version 2
Профиль формата : Main@Main
Параметр BVOP формата : Да
Параметр матрицы формата : Выборочная
Параметр GOP формата : Variable
Продолжительность : 15 м.
Вид битрейта : Переменный
Битрейт : 8287 Кбит/сек
Максимальный битрейт : 9800 Кбит/сек
Ширина : 720 пикселей
Высота : 480 пикселей
Соотношение сторон : 16:9
Частота кадров : 23,976 (24000/1001) кадра/сек
Цветовое пространство : YUV
Субдискретизация насыщенности : 4:2:0
Битовая глубина : 8 бит
Тип развёртки : Прогрессивная
Порядок развёртки : 2:3 Pulldown
Метод сжатия : С потерями
Бит/(Пиксели*Кадры) : 1.000
Временной код первого кадра : 00:59:38:00
Оригинал временного кода : Group of pictures header
Размер потока : 919 Мбайт (90%)
Аудио #1
Идентификатор : 189 (0xBD)-128 (0x80)
Формат : AC-3
Формат/Информация : Audio Coding 3
Расширение режима : CM (complete main)
Параметр Endianness формата : Big
Режим смешивания : DVD-Video
Продолжительность : 15 м.
Вид битрейта : Постоянный
Битрейт : 192 Кбит/сек
Каналы : 2 канала
Расположение каналов : Front: L R
Частота : 48,0 КГц
Частота кадров : 31,250 кадров/сек (1536 spf)
Метод сжатия : С потерями
Размер потока : 21,3 Мбайт (2%)
Аудио #2
Идентификатор : 189 (0xBD)-129 (0x81)
Формат : AC-3
Формат/Информация : Audio Coding 3
Расширение режима : CM (complete main)
Параметр Endianness формата : Big
Режим смешивания : DVD-Video
Продолжительность : 15 м.
Вид битрейта : Постоянный
Битрейт : 192 Кбит/сек
Каналы : 2 канала
Расположение каналов : Front: L R
Частота : 48,0 КГц
Частота кадров : 31,250 кадров/сек (1536 spf)
Метод сжатия : С потерями
Размер потока : 21,3 Мбайт (2%)
Аудио #3
Идентификатор : 189 (0xBD)-130 (0x82)
Формат : AC-3
Формат/Информация : Audio Coding 3
Расширение режима : CM (complete main)
Параметр Endianness формата : Big
Режим смешивания : DVD-Video
Продолжительность : 15 м.
Вид битрейта : Постоянный
Битрейт : 384 Кбит/сек
Каналы : 1 канал
Расположение каналов : Front: C
Частота : 48,0 КГц
Частота кадров : 31,250 кадров/сек (1536 spf)
Метод сжатия : С потерями
Размер потока : 42,6 Мбайт (4%)
Текст #1
Идентификатор : 189 (0xBD)-32 (0x20)
Формат : RLE
Формат/Информация : Run-length encoding
Режим смешивания : DVD-Video
Текст #2
Идентификатор : 189 (0xBD)-33 (0x21)
Формат : RLE
Формат/Информация : Run-length encoding
Режим смешивания : DVD-Video

Mediainfo Диск 2

Общее
Полное имя : F:\Dressed to Kill DVD-9_Custom+DVD-9_Criterion#770\Диск 2\VIDEO_TS\VTS_02_1.VOB
Формат : MPEG-PS
Размер файла : 1024 Мбайт
Продолжительность : 22 м.
Режим общего битрейта : Переменный
Общий поток : 6264 Кбит/сек
Видео
Идентификатор : 224 (0xE0)
Формат : MPEG Video
Версия формата : Version 2
Профиль формата : Main@Main
Параметр BVOP формата : Да
Параметр матрицы формата : Выборочная
Параметр GOP формата : Variable
Структура изображения : Frame
Продолжительность : 22 м.
Вид битрейта : Переменный
Битрейт : 5947 Кбит/сек
Максимальный битрейт : 9800 Кбит/сек
Ширина : 720 пикселей
Высота : 480 пикселей
Соотношение сторон : 4:3
Частота кадров : 29,970 (30000/1001) кадров/сек
Стандарт вещания : NTSC
Цветовое пространство : YUV
Субдискретизация насыщенности : 4:2:0
Битовая глубина : 8 бит
Тип развёртки : Чересстрочная
Порядок развёртки : Верхнее поле первое
Метод сжатия : С потерями
Бит/(Пиксели*Кадры) : 0.574
Временной код первого кадра : 01:00:00:00
Оригинал временного кода : Group of pictures header
GOP, открыто/закрыто : Открыто
GOP, открыто/закрыто на первом кадре : Закрыто
Размер потока : 972 Мбайт (95%)
Аудио
Идентификатор : 189 (0xBD)-128 (0x80)
Формат : AC-3
Формат/Информация : Audio Coding 3
Расширение режима : CM (complete main)
Параметр Endianness формата : Big
Режим смешивания : DVD-Video
Продолжительность : 22 м.
Вид битрейта : Постоянный
Битрейт : 192 Кбит/сек
Каналы : 2 канала
Расположение каналов : Front: L R
Частота : 48,0 КГц
Частота кадров : 31,250 кадров/сек (1536 spf)
Метод сжатия : С потерями
Размер потока : 31,4 Мбайт (3%)

Скриншоты меню Диск 1

Скриншоты фильма Диск 1

Скриншоты доп. материалов Диск 1

Скриншоты меню Диск 2



Скриншоты доп. материалов Диск 2






Полиграфия









Релиз: Уважаемые пользователи!Найдите пару минут поблагодарить релизера и высказаться в топике раздачи.Ваше мнение - бальзам для раздающего и пища для ума остальным пользователям.Мои раздачи


Показать сообщения:    

Текущее время: 13-Дек 07:26

Часовой пояс: UTC ± 0


Вы не можете начинать темы
Вы не можете отвечать на сообщения
Вы не можете редактировать свои сообщения
Вы не можете удалять свои сообщения
Вы не можете голосовать в опросах
Вы не можете прикреплять файлы к сообщениям
Вы не можете скачивать файлы

!ВНИМАНИЕ!
Сайт не предоставляет электронные версии произведений, а занимается лишь коллекционированием и каталогизацией ссылок, присылаемых и публикуемых на форуме нашими читателями. Если вы являетесь правообладателем какого-либо представленного материала и не желаете, чтобы ссылка на него находилась в нашем каталоге, свяжитесь с нами, и мы незамедлительно удалим ее. Файлы для обмена на трекере предоставлены пользователями сайта, и администрация не несет ответственности за их содержание. Просьба не заливать файлы, защищенные авторскими правами, а также файлы нелегального содержания!