Важное объявление!
У Нас Все раздачи мультитрекерные, при нуле пиров в релизах, можете смело вставать на закачку!
Статистика раздачи
Размер:     |    Зарегистрирован:     |    Скачан:     |   
Нет
 
     
 
 
Автор Сообщение

HUNTER

Стаж:
5 лет
Сообщений:
67920

Репутация: 101

[+] [-]
Вне форума [Профиль] [ЛС]

-Бригада
«За всё, что мы делаем, отвечать будем вместе!»
--
Год выпуска: 2002 г.
Производство: Россия
Жанр: криминальная драма
Продолжительность: 00:50:00 ~ серия
Перевод: Не требуется
Режиссер: Алексей Сидоров
В ролях: Сергей Безруков, Владимир Вдовиченков, Дмитрий Дюжев, Павел Майков, Андрей Панин, Екатерина Гусева, Леонид Куравлев, Николай Еременко мл., Александр Белявский, Валентина Теличкина, Алексей Кравченко, Дарья Повереннова, Ян Цапник, Светлана Чуйкина, Алексей Алексеев, Мария Аронова
Описание: Это история четырех друзей детства, обычных московских парней, Саши Белого, Космоса, Пчелы и Фила, выросших в одном дворе. Друзья решили немного подзаработать, но незапланированное убийство вмиг перемешало все задуманное, поставив на кон их жизни.
Ставка слишком высока, но отступать некуда. Теперь парни прокладывают себе дорогу в криминальном мире и волею судеб превращаются в одну из самых сплоченных и влиятельных группировок…

Доп. информация

-- --
Качество видео: DVDRip-AVC
Формат видео: MKV
Видео кодек: H.264
Аудио кодек: AC3
Видео: 720x400 (16/9), 29.970 fps, 1 500 Kbps (0.169 bit/pixel)
Аудио: 48.0 KHz, 6 ch, 448 Kbps

Media Info

General
Unique ID : 206885608610351068414922037338323848802 (0x9BA4B807C4DC22268820AAE559A88E62)
Complete name : H:\JRG\Бригада\Brigada.s01.2002.x264.DVDRip-AVC.JRG.mkv
Format : Matroska
Format version : Version 2
File size : 671 MiB
Duration : 48mn 7s
Overall bit rate : 1 950 Kbps
Movie name : Бригада (2002) - The Jolly Roger by Pirat.Ca [zyyx]
Encoded date : UTC 2012-12-08 16:48:47
Writing application : mkvmerge v4.9.1 ('Ich will') сборка от Aug 10 2011 09:31:20
Writing library : libebml v1.2.1 + libmatroska v1.2.0
Video
ID : 1
Format : AVC
Format/Info : Advanced Video Codec
Format profile : [url=mailto:High@L4.1]High@L4.1[/url]
Format settings, CABAC : Yes
Format settings, ReFrames : 12 frames
Codec ID : V_MPEG4/ISO/AVC
Duration : 48mn 7s
Bit rate : 1 500 Kbps
Width : 720 pixels
Height : 400 pixels
Display aspect ratio : 16:9
Frame rate : 29.970 fps
Color space : YUV
Chroma subsampling : 4:2:0
Bit depth : 8 bits
Scan type : Progressive
Bits/(Pixel*Frame) : 0.174
Stream size : 503 MiB (75%)
Title : JRG
Writing library : x264 core 116 r2074 2641b9e
Encoding settings : cabac=1 / ref=12 / deblock=1:-1:-1 / analyse=0x3:0x133 / me=umh / subme=11 / psy=1 / psy_rd=1.00:0.10 / mixed_ref=1 / me_range=48 / chroma_me=1 / trellis=2 / 8x8dct=1 / cqm=0 / deadzone=21,11 / fast_pskip=0 / chroma_qp_offset=-3 / threads=12 / sliced_threads=0 / nr=0 / decimate=1 / interlaced=0 / bluray_compat=0 / constrained_intra=0 / bframes=8 / b_pyramid=2 / b_adapt=2 / b_bias=0 / direct=3 / weightb=1 / open_gop=0 / weightp=2 / keyint=250 / keyint_min=25 / scenecut=40 / intra_refresh=0 / rc_lookahead=50 / rc=2pass / mbtree=1 / bitrate=1500 / ratetol=1.0 / qcomp=0.60 / qpmin=0 / qpmax=69 / qpstep=4 / cplxblur=20.0 / qblur=0.5 / ip_ratio=1.40 / aq=1:1.00
Default : Yes
Forced : No
Audio
ID : 2
Format : AC-3
Format/Info : Audio Coding 3
Mode extension : CM (complete main)
Format settings, Endianness : Big
Codec ID : A_AC3
Duration : 48mn 7s
Bit rate mode : Constant
Bit rate : 448 Kbps
Channel(s) : 6 channels
Channel positions : Front: L C R, Side: L R, LFE
Sampling rate : 48.0 KHz
Bit depth : 16 bits
Compression mode : Lossy
Stream size : 154 MiB (23%)
Language : Russian
Default : Yes
Forced : No

Скриншоты

1 серия




2 серия




3 серия




4 серия




5 серия




6 серия




7 серия




8 серия




9 серия




10 серия




11 серия




12 серия




13 серия




14 серия




15 серия




- --

_________________
Показать сообщения:    

Текущее время: Сегодня 10:29

Часовой пояс: GMT



Вы не можете начинать темы
Вы не можете отвечать на сообщения
Вы не можете редактировать свои сообщения
Вы не можете удалять свои сообщения
Вы не можете голосовать в опросах
Вы не можете прикреплять файлы к сообщениям
Вы не можете скачивать файлы