Важное объявление!
У Нас Все раздачи мультитрекерные, при нуле пиров в релизах, можете смело вставать на закачку!
 
Автор Сообщение

HUNTER

Стаж:
4 года 6 месяцев
Сообщений:
60886

Репутация: 101

[+] [-]
Вне форума [Профиль] [ЛС]

Брестская крепостьГод выпуска: 2010
Страна: Россия, Беларусь
Слоган: «Я умираю, но не сдаюсь!»
Жанр: драма, военный
Продолжительность: 02:18:15
Перевод: Не требуется
Режиссер: Александр Котт
Сценарий: Владимир Еремин, Алексей Дударев, Екатерина Тирдатова, Константин Воробьев
Продюсер: Игорь Угольников, Рубен Дишдишян, Владимир Заметалин
Оператор: Владимир Башта
Композитор: Юрий Красавин
В ролях: Алексей Копашов (Сашка Акимов), Андрей Мерзликин (лейтенант Кижеватов), Павел Деревянко (Ефим Фомин), Александр Коршунов (Петр Гаврилов), Евгений Цыганов (лейтенант Почерников), Юрий Анпилогов (Кофтун), Кирилл Болтаев (лейтенант Виноградов), Анатолий Кот (диверсант), Илья Мозговой (немецкий офицер), Яна Есипович (жена Кижеватова), Дмитрий Куличков (Карелин, летчик), Егор Петров (Алик Бобков)-Бюджет: 225 000 000 руб.
Сборы в России: $4 401 866
Мировая премьера: 22 июня 2010
Релиз на DVD: 7 декабря 2010, «Флагман-Трейд»
Релиз на Blu-ray: 8 февраля 2011, «Флагман-Трейд»-Описание: Фильм рассказывает о героической обороне Брестской крепости, которая приняла на себя первый удар немецко-фашистских захватчиков 22 июня 1941 года. С документальной точностью описываются события, происходившие в первые дни обороны. Фильм рассказывает о главных трёх очагах сопротивления, возглавляемых командиром полка Петром Гавриловым, комиссаром Ефимом Фоминым и начальником 9-й погранзаставы Андреем Кижеватовым.-Качество: BDRip
Формат: Matroska
Видео: AVC; 1280x544 (2.35:1); 4070 Kbps; 24 fps; 0,238 bpp
Аудио: Russian; AC3; 448 Kbps; CBR; 6 ch

MediaInfo

бщее
Уникальный идентификатор : 228900191429951555756854293894188707782 (0xAC3492C377949FA889AFBE48D8172FC6)
Полное имя : I:\encode\brest.mkv
Формат : Matroska
Размер файла : 4,36 Гбайт
Продолжительность : 2 ч. 18 м.
Общий поток : 4520 Кбит/сек
Название фильма : "Брестская крепость"(720p.dvd5.Toshik®)
Дата кодирования : UTC 2011-03-17 15:55:57
Программа кодирования : mkvmerge v4.6.0 ('Still Crazy After All These Years') сборка от Mar 10 2011 02:50:32
Библиотека кодирования : libebml v1.2.0 + libmatroska v1.1.0
Видео
Идентификатор : 1
Формат : AVC
Формат/Информация : Advanced Video Codec
Профиль формата : High@L4.1
Параметр CABAC формата : Да
Параметр ReFrames формата : 12 кадры
Идентификатор кодека : V_MPEG4/ISO/AVC
Продолжительность : 2 ч. 18 м.
Битрейт : 4070 Кбит/сек
Ширина : 1280 пикс.
Высота : 544 пикс.
Соотношение сторон : 2,35:1
Частота кадров : 24,000 кадр/сек
Цветовое пространство : YUV
Подвыборка цветности : 4:2:0
Битовая глубина : 8 бит
Тип развёртки : Прогрессивная
Бит/(Пиксели*Кадры) : 0.244
Размер потока : 3,85 Гбайт (88%)
Заголовок : Rip by Toshik®
Библиотека кодирования : x264 core 114 r1913 5fd3dce
Настройки программы : cabac=1 / ref=12 / deblock=1:-1:-1 / analyse=0x3:0x133 / me=umh / subme=10 / psy=1 / psy_rd=0.93:0.05 / mixed_ref=1 / me_range=64 / chroma_me=1 / trellis=2 / 8x8dct=1 / cqm=2 / deadzone=21,11 / fast_pskip=0 / chroma_qp_offset=-3 / threads=6 / sliced_threads=0 / nr=0 / decimate=1 / interlaced=0 / constrained_intra=0 / bframes=11 / b_pyramid=2 / b_adapt=2 / b_bias=0 / direct=3 / weightb=1 / open_gop=0 / weightp=2 / keyint=250 / keyint_min=24 / scenecut=40 / intra_refresh=0 / rc=2pass / mbtree=0 / bitrate=4070 / ratetol=1.0 / qcomp=0.60 / qpmin=10 / qpmax=69 / qpstep=4 / cplxblur=20.0 / qblur=0.5 / ip_ratio=1.40 / pb_ratio=1.30 / aq=1:1.00 / zones=192600,199095,q=26
Язык : Russian
Основные цвета : BT.709-5, BT.1361, IEC 61966-2-4, SMPTE RP177
Характеристики трансфера : BT.709-5, BT.1361
Коэффициенты матрицы : BT.709-5, BT.1361, IEC 61966-2-4 709, SMPTE RP177
Аудио
Идентификатор : 2
Формат : AC-3
Формат/Информация : Audio Coding 3
Расширение режима : CM (complete main)
Идентификатор кодека : A_AC3
Продолжительность : 2 ч. 18 м.
Вид битрейта : Постоянный
Битрейт : 448 Кбит/сек
Канал(ы) : 6 канала(ов)
Расположение каналов : Front: L C R, Side: L R, LFE
Частота : 48,0 КГц
Битовая глубина : 16 бит
Метод сжатия : С потерями
Размер потока : 443 Мбайт (10%)
Язык : Russian

x264Log

---[NoImage] x264 [info]: frame I:1166 Avg QP:18.46 size: 83404
---[NoImage] x264 [info]: frame P:46671 Avg QP:20.52 size: 34876
---[NoImage] x264 [info]: frame B:151261 Avg QP:22.79 size: 16498
---[NoImage] x264 [info]: consecutive B-frames: 3.0% 3.1% 9.2% 25.1% 15.8% 36.4% 3.8% 1.0% 1.5% 0.3% 0.4% 0.3%
---[NoImage] x264 [info]: mb I I16..4: 21.2% 20.6% 58.3%
---[NoImage] x264 [info]: mb P I16..4: 4.1% 9.4% 5.6% P16..4: 42.9% 24.7% 4.0% 0.3% 0.4% skip: 8.7%
---[NoImage] x264 [info]: mb B I16..4: 0.4% 0.8% 0.4% B16..8: 41.9% 13.7% 3.4% direct:13.4% skip:25.8% L0:43.7% L1:46.0% BI:10.3%
---[NoImage] x264 [info]: 8x8 transform intra:46.7% inter:59.9%
---[NoImage] x264 [info]: direct mvs spatial:99.5% temporal:0.5%
---[NoImage] x264 [info]: coded y,uvDC,uvAC intra: 76.3% 57.4% 20.6% inter: 43.1% 28.6% 0.6%
---[NoImage] x264 [info]: i16 v,h,dc,p: 29% 13% 13% 45%
---[NoImage] x264 [info]: i8 v,h,dc,ddl,ddr,vr,hd,vl,hu: 9% 8% 10% 9% 14% 13% 14% 11% 13%
---[NoImage] x264 [info]: i4 v,h,dc,ddl,ddr,vr,hd,vl,hu: 5% 5% 3% 11% 17% 15% 16% 12% 16%
---[NoImage] x264 [info]: i8c dc,h,v,p: 47% 24% 18% 12%
---[NoImage] x264 [info]: Weighted P-Frames: Y:25.6% UV:13.1%
---[NoImage] x264 [info]: ref P L0: 41.6% 7.6% 17.2% 9.1% 6.5% 4.9% 3.9% 2.5% 2.1% 1.7% 1.4% 1.1% 0.3% 0.0%
---[NoImage] x264 [info]: ref B L0: 71.0% 13.0% 6.1% 3.1% 2.1% 1.6% 1.3% 0.8% 0.6% 0.4% 0.2%
---[NoImage] x264 [info]: ref B L1: 92.3% 7.7%
---[NoImage] x264 [info]: SSIM Mean Y:0.9634268 (14.368db)
---[NoImage] x264 [info]: kb/s:4069.96

скрины/сравнения с оригиналом

Rip by Toshik®

_________________
Показать сообщения:    

Текущее время: Сегодня 16:43

Часовой пояс: GMT



Вы не можете начинать темы
Вы не можете отвечать на сообщения
Вы не можете редактировать свои сообщения
Вы не можете удалять свои сообщения
Вы не можете голосовать в опросах
Вы не можете прикреплять файлы к сообщениям
Вы не можете скачивать файлы
Наши партнеры: интернет магазин Ивановского трикотажа textilla.ru