Важное объявление!
У Нас Все раздачи мультитрекерные, при нуле пиров в релизах, можете смело вставать на закачку!
 
Автор Сообщение

mihis

[Профиль] [ЛС]

Братья Ньютон / The Newton Boys«History is about to catch up with America's most successful bank robbers.»
Год выпуска: 1998
Страна: США, 20th Century Fox Film Corporation, Detour Filmproduction, Newton Boys Ventures Inc.
Жанр: Боевик, драма, криминал, вестерн, история
Продолжительность: 02:02:30
Перевод: Профессиональный (двухголосый, закадровый) R5 +Профессиональный (многоголосый, закадровый) Премьер + Оригинал
Субтитры: Русские, Английские
Режиссер: Ричард Линклейтер
В ролях: Мэттью МакКонахи, Скит Ульрих, Этан Хоук, Гэйл Кронау, Винсент Д`Онофрио, Jena Karam, Джулианна Маргулис, Кэйси МакОлиффи, Дуайт Йоакам, Чарльз Ганнинг
Описание: Однажды четырем молодым братьям-южанам надоело влачить нищенское существование и зарабатывать скудные крохи тяжелым трудом. Большие деньги были совсем рядом, братья уже чувствовали их запах. Для того, чтобы заполучить заветные зеленые купюры, нужно было просто немного наглости и куража. А потом уже весь мир будет у тебя в кармане…
За пять лет семейная банда Ньютонов с успехом опустошила восемьдесят банков в США и Канаде. Для триумфа им не доставало лишь ограбления, которое смогло бы занять место в истории криминалистики. Именно его братья и задумали совершить…

Качество: BDRip-AVC
Формат: MKV
Видео кодек: H.264
Аудио кодек: AC3
Видео: AVC, 1024x436 (2.35:1), 23.976 fps, 2 200 Kbps (0.206 bit/pixel)
Аудио #1: AC3, 48.0 KHz, 6 ch, 448 Kbps, CBR DVO
Аудио #2: AC3, 48.0 KHz, 2 ch, 192 Kbps, CBR MVO
Аудио #3: AC3, 48.0 KHz, 6 ch, 448 Kbps, CBR Eng

MediaInfo

Общее
Уникальный идентификатор : 178044664785015506874028544662648339848 (0x85F227B6E9CB9A368CC736C9880B3D88)
Полное имя : D:\Video\Bratjya.Njyuton.1998.BDRip.(AVC)-MediaClub.mkv
Формат : Matroska
Версия формата : Version 2
Размер файла : 2,81 Гбайт
Продолжительность : 2 ч. 2 м.
Общий поток : 3289 Кбит/сек
Название фильма : -=MediaClub-kaspr=-
Дата кодирования : UTC 2013-07-25 05:09:36
Программа кодирования : mkvmerge v5.7.0 ('The Whirlwind') built on Aug 7 2012 14:11:40
Библиотека кодирования : libebml v1.2.3 + libmatroska v1.3.0
Видео
Идентификатор : 1
Формат : AVC
Формат/Информация : Advanced Video Codec
Профиль формата : High@L4.1
Параметр CABAC формата : Да
Параметр ReFrames формата : 9 кадров
Идентификатор кодека : V_MPEG4/ISO/AVC
Продолжительность : 2 ч. 2 м.
Битрейт : 2200 Кбит/сек
Ширина : 1024 пикселя
Высота : 436 пикселей
Соотношение сторон : 2,35:1
Режим частоты кадров : Постоянный
Частота кадров : 23,976 кадра/сек
Цветовое пространство : YUV
Субдискретизация насыщенности : 4:2:0
Битовая глубина : 8 бит
Тип развёртки : Прогрессивная
Бит/(Пиксели*Кадры) : 0.206
Размер потока : 1,83 Гбайт (65%)
Заголовок : -=MediaClub-kaspr=-
Библиотека кодирования : x264 core 130 r2273 b3065e6
Настройки программы : cabac=1 / ref=9 / deblock=1:-3:-3 / analyse=0x3:0x133 / me=umh / subme=11 / psy=1 / psy_rd=1.00:0.20 / mixed_ref=1 / me_range=32 / chroma_me=1 / trellis=2 / 8x8dct=1 / cqm=0 / deadzone=21,11 / fast_pskip=0 / chroma_qp_offset=-3 / threads=12 / lookahead_threads=3 / sliced_threads=0 / nr=0 / decimate=0 / interlaced=0 / bluray_compat=0 / constrained_intra=0 / bframes=10 / b_pyramid=2 / b_adapt=2 / b_bias=0 / direct=3 / weightb=1 / open_gop=0 / weightp=2 / keyint=250 / keyint_min=23 / scenecut=40 / intra_refresh=0 / rc=2pass / mbtree=0 / bitrate=2200 / ratetol=1.0 / qcomp=0.60 / qpmin=0 / qpmax=69 / qpstep=4 / cplxblur=20.0 / qblur=0.5 / ip_ratio=1.40 / pb_ratio=1.30 / aq=1:1.00
Язык : English
Default : Да
Forced : Нет
Аудио #1
Идентификатор : 2
Формат : AC-3
Формат/Информация : Audio Coding 3
Расширение режима : CM (complete main)
Параметр Endianness формата : Big
Идентификатор кодека : A_AC3
Продолжительность : 2 ч. 2 м.
Вид битрейта : Постоянный
Битрейт : 448 Кбит/сек
Каналы : 6 каналов
Расположение каналов : Front: L C R, Side: L R, LFE
Частота : 48,0 КГц
Битовая глубина : 16 бит
Метод сжатия : С потерями
Размер потока : 393 Мбайт (14%)
Заголовок : ПД (R5)
Язык : Russian
Default : Да
Forced : Да
Аудио #2
Идентификатор : 3
Формат : AC-3
Формат/Информация : Audio Coding 3
Расширение режима : CM (complete main)
Параметр Endianness формата : Big
Идентификатор кодека : A_AC3
Продолжительность : 2 ч. 2 м.
Вид битрейта : Постоянный
Битрейт : 192 Кбит/сек
Каналы : 2 канала
Расположение каналов : Front: L R
Частота : 48,0 КГц
Битовая глубина : 16 бит
Метод сжатия : С потерями
Размер потока : 168 Мбайт (6%)
Заголовок : ПМ (Премьер)
Язык : Russian
Default : Нет
Forced : Нет
Аудио #3
Идентификатор : 4
Формат : AC-3
Формат/Информация : Audio Coding 3
Расширение режима : CM (complete main)
Параметр Endianness формата : Big
Идентификатор кодека : A_AC3
Продолжительность : 2 ч. 2 м.
Вид битрейта : Постоянный
Битрейт : 448 Кбит/сек
Каналы : 6 каналов
Расположение каналов : Front: L C R, Side: L R, LFE
Частота : 48,0 КГц
Битовая глубина : 16 бит
Метод сжатия : С потерями
Размер потока : 393 Мбайт (14%)
Заголовок : Оригинал
Язык : English
Default : Нет
Forced : Нет
Текст #1
Идентификатор : 5
Формат : UTF-8
Идентификатор кодека : S_TEXT/UTF8
Идентификатор кодека/Информация : UTF-8 Plain Text
Язык : Russian
Default : Нет
Forced : Нет
Текст #2
Идентификатор : 6
Формат : UTF-8
Идентификатор кодека : S_TEXT/UTF8
Идентификатор кодека/Информация : UTF-8 Plain Text
Язык : English
Default : Нет
Forced : Нет
Меню
00:00:00.000 : en:Chapter 01
00:10:43.643 : en:Chapter 02
00:21:30.288 : en:Chapter 03
00:30:33.832 : en:Chapter 04
00:38:31.309 : en:Chapter 05
00:49:03.940 : en:Chapter 06
00:59:53.590 : en:Chapter 07
01:10:22.843 : en:Chapter 08
01:19:45.780 : en:Chapter 09
01:31:18.472 : en:Chapter 10
01:39:51.777 : en:Chapter 11
01:50:22.615 : en:Chapter 12
 
Показать сообщения:    

Текущее время: Сегодня 15:46

Часовой пояс: GMT



Вы не можете начинать темы
Вы не можете отвечать на сообщения
Вы не можете редактировать свои сообщения
Вы не можете удалять свои сообщения
Вы не можете голосовать в опросах
Вы не можете прикреплять файлы к сообщениям
Вы не можете скачивать файлы
Наши партнеры: интернет магазин Ивановского трикотажа textilla.ru