Братство / The Brotherhood (Мартин Ритт / Martin Ritt) [1968, США, Драма, криминал, HDTV 1080i] MVO :: Ивановский Торрент трекер
Важное объявление!
У Нас Все раздачи мультитрекерные, при нуле пиров в релизах, можете смело вставать на закачку!
Статистика раздачи
Размер:     |    Зарегистрирован:     |    Скачан:     |   
Нет
 
     
 
 
Автор Сообщение

HUNTER

Стаж:
4 года 11 месяцев
Сообщений:
66077

Репутация: 101

[+] [-]
Вне форума [Профиль] [ЛС]

Братство / The Brotherhood
Страна: США
Студия: Paramount Pictures and Brotherhood Company
Жанр: Драма, криминал
Год выпуска: 1968
Продолжительность: 01:30:36
Перевод: Профессиональный (многоголосый закадровый)
Cубтитры: нет
Оригинальная аудиодорожка: нет
Режиссер: Мартин Ритт / Martin Ritt
В ролях: Кирк Дуглас, Алекс Корд, Ирен Папас, Лютер Эдлер, Сьюзен Страсберг, Мюррэй Хэмилтон, Эдуардо Чианнелли, Джо Де Сантис, Конни Скотт, Вэл Эйвери
Описание: Сын мощной мафии, Дон приходит домой из службы в армии во Вьетнаме и хочет вести свою собственную жизнь, но семейная традиция, с участием его старшего брата диктует иначе, и он находит себя, и медленно втягивается обратно в этот мир.
Доп. информация: Фильм записан с канала Paramount Channel HD по просьбе Don Luciano
Сэмпл: http://multi-up.com/970412, http://rusfolder.com/40577404
Тип релиза: HDTV 1080i
Контейнер: TS
Видео: 4661 Кбит/сек, MPEG4 Video (H264) 1920x1080 (16:9) 25fps
Аудио: MPEG Audio 48000Hz stereo Layer 2 192kbps
MediaInfo
Общее
Идентификатор : 1 (0x1)
Полное имя : D:\Братство (The Brotherhood) [1968] (RUS) Paramount Channel HD.ts
Формат : MPEG-TS
Размер файла : 3,23 Гбайт
Продолжительность : 1 ч. 30 м.
Режим общего битрейта : Переменный
Общий поток : 5108 Кбит/сек
Видео
Идентификатор : 69 (0x45)
Идентификатор меню : 1 (0x1)
Формат : AVC
Формат/Информация : Advanced Video Codec
Профиль формата : High@L4.0
Параметр CABAC формата : Да
Параметр ReFrames формата : 4 кадра
Идентификатор кодека : 27
Продолжительность : 1 ч. 30 м.
Вид битрейта : Переменный
Битрейт : 4661 Кбит/сек
Максимальный битрейт : 5000 Кбит/сек
Ширина : 1920 пикселей
Высота : 1080 пикселей
Соотношение сторон : 16:9
Режим частоты кадров : Переменный
Цветовое пространство : YUV
Субдискретизация насыщенности : 4:2:0
Битовая глубина : 8 бит
Тип развёртки : MBAFF
Размер потока : 2,95 Гбайт (91%)
Аудио
Идентификатор : 68 (0x44)
Идентификатор меню : 1 (0x1)
Формат : MPEG Audio
Версия формата : Version 1
Профиль формата : Layer 2
Идентификатор кодека : 3
Продолжительность : 1 ч. 30 м.
Вид битрейта : Постоянный
Битрейт : 192 Кбит/сек
Каналы : 2 канала
Частота : 48,0 КГц
Метод сжатия : С потерями
Размер потока : 124 Мбайт (4%)
Язык : Russian
Скриншоты

_________________
Показать сообщения:    

Текущее время: Сегодня 10:33

Часовой пояс: GMT



Вы не можете начинать темы
Вы не можете отвечать на сообщения
Вы не можете редактировать свои сообщения
Вы не можете удалять свои сообщения
Вы не можете голосовать в опросах
Вы не можете прикреплять файлы к сообщениям
Вы не можете скачивать файлы