Ивановский Торрент трекер
Яндекс.Погода
 

[Цитировать]
Shalun

-Братаны 2 -Год выпуска: 2010
Российская премьера: 25 октября 2010
Дата выхода DVD: 14 декабря 2010, «Монолит»
Производство: Pocсия, Русское Счастье
Жанр: Боевик
Продолжительность: 32 х 00:45:00
Перевод: Оригинал [Лицензия]
Субтитры: нет-Режиссёр: Сергей Лялин, Сергей Артимович-В ролях: Ева Авеева, Александр Андриенко, Александр Баринов, Сергей Векслер, Даниил Воробьев, Елена Гольянова, Борис Клюев, Сергей Коваленко, Виктор Конухин, Алексей Кравченко, Равшана Куркова, Антон Никушин, Сергей Селин, Денис Сухомлинов, Виктория Фишер, Антон Хабаров, Феликс Шультесс, Александр Лучинин-Описание: В день ВДВ братаны узнают, что их друг Костян погиб, разбился на мотоцикле. Братаны стоят на могиле друга, к ним подъезжает мотоциклист. В шлеме он напоминает погибшего друга. Это Алекс, младший брат Костяна. У выхода с кладбища братаны с Алексом вступаются за детей-попрошаек. Оказывается Ваня и Таня здесь работают на бандитов, которые заставляют их просить милостыню, и отбирают заработанные деньги. Неожиданная череда событий заставляет братанов ввязаться в запутанную бандитскую сеть, найти и обезвредить их главарей и освободить детей.-Доп. информация: нет- -Качество: 2xDVD9 R5
Формат: DVD-Video
Видео кодек: MPEG2
Аудио кодек: AC3
Видео: PAL 4:3 (352x288) MPEG Video, 25,000 кадр/сек
Аудио: Russian (Dolby AC3, 2 ch) 128 Кбит/сек, 48,0 КГц--

Сканы

DVDInfo DVD-1

Title: F
Size: 7.71 Gb ( 8 089 178 KBytes ) - DVD-9
Enabled regions: 1, 2, 3, 4, 5, 6, 7, 8
VTS_01 :
Play Length: 00:47:27+00:47:15+00:47:25+00:47:24+00:46:22+00:46:28+00:46:16+00:46:04+00:47:21+00:46:23+00:45:55+00:47:48+00:45:57+00:47:19+00:45:48+00:46:00
Video: PAL 4:3 (352x288) CBR
Audio:
Russian (Dolby AC3, 2 ch)
VTS_02 :
Play Length: 00:00:15+00:00:10
Video: PAL 4:3 (704x576) VBR
Audio:
Russian (Dolby AC3, 6 ch)
Menu Video:
PAL 4:3 (704x576) VBR
Menu Audio:
Not specified (Dolby AC3, 2 ch)
Menu Subtitles:
Not specified
Menu English Language Unit :
Root Menu

DVDInfo DVD-2

Title: F
Size: 7.41 Gb ( 7 765 548 KBytes ) - DVD-9
Enabled regions: 1, 2, 3, 4, 5, 6, 7, 8
VTS_01 :
Play Length: 00:47:27+00:45:43+00:46:40+00:47:11+00:47:10+00:46:58+00:46:59+00:46:37+00:47:36+00:46:48+00:47:32+00:47:31+00:46:46
Video: PAL 4:3 (352x288) CBR
Audio:
Russian (Dolby AC3, 2 ch)
VTS_02 :
Play Length: 00:00:15+00:00:10
Video: PAL 4:3 (704x576) VBR
Audio:
Russian (Dolby AC3, 6 ch)
Menu Video:
PAL 4:3 (704x576) VBR
Menu Audio:
Not specified (Dolby AC3, 2 ch)
Menu Subtitles:
Not specified
Menu English Language Unit :
Root Menu

MediaInfo DVD-1

Общее
Полное имя : E:\Новинки 2011\Bratany.2.(01-32.serii.iz.32).2010.2xDVD9\Bratany.2.(01-17.serii.iz.32).2010.O.DVD.[uniongang.tv]\VIDEO_TS\VTS_01_1.VOB
Формат : MPEG-PS
Размер файла : 1024 Мбайт
Продолжительность : 4 м. 8 с.
Общий поток : 34,6 Мбит/сек
Библиотека кодирования : encoded by TMPGEnc 4.0 XPress Version. 4.7.7.307
Видео
Идентификатор : 224 (0xE0)
Формат : MPEG Video
Версия формата : Version 2
Профиль формата : Main@Main
Параметр BVOP формата : Да
Параметр матрицы формата : По умолчанию
Параметры GOP формата : M=3, N=13
Продолжительность : 4 м. 8 с.
Вид битрейта : Переменный
Битрейт : 33,8 Мбит/сек
Номинальный битрейт : 9200 Кбит/сек
Ширина : 352 пикс.
Высота : 288 пикс.
Соотношение сторон : 4:3
Частота кадров : 25,000 кадр/сек
Стандарт вещания : PAL
Цветовое пространство : YUV
Подвыборка цветности : 4:2:0
Битовая глубина : 8 бит
Тип развёртки : Прогрессивная
Метод сжатия : С потерями
Бит/(Пиксели*Кадры) : 13.338
Размер потока : 1000 Мбайт (98%)
Библиотека кодирования : TMPGEnc XPress 4.7.7.307
Аудио
Идентификатор : 189 (0xBD)-128 (0x80)
Формат : AC-3
Формат/Информация : Audio Coding 3
Расширение режима : CM (complete main)
Режим смешивания : DVD-Video
Продолжительность : 4 м. 7 с.
Вид битрейта : Постоянный
Битрейт : 128 Кбит/сек
Канал(ы) : 2 канала(ов)
Расположение каналов : Front: L R
Частота : 48,0 КГц
Битовая глубина : 16 бит
Метод сжатия : С потерями
Размер потока : 3,78 Мбайт (0%)

MediaInfo DVD-2

Общее
Полное имя : E:\Новинки 2011\Bratany.2.(01-32.serii.iz.32).2010.2xDVD9\Bratany.2.(17-32.serii.iz.32).2010.O.DVD.[uniongang.tv]\VIDEO_TS\VTS_01_1.VOB
Формат : MPEG-PS
Размер файла : 1024 Мбайт
Продолжительность : 3 м. 32 с.
Общий поток : 40,5 Мбит/сек
Библиотека кодирования : encoded by TMPGEnc 4.0 XPress Version. 4.7.7.307
Видео
Идентификатор : 224 (0xE0)
Формат : MPEG Video
Версия формата : Version 2
Профиль формата : Main@Main
Параметр BVOP формата : Да
Параметр матрицы формата : По умолчанию
Параметры GOP формата : M=3, N=13
Продолжительность : 3 м. 32 с.
Вид битрейта : Переменный
Битрейт : 39,5 Мбит/сек
Номинальный битрейт : 9200 Кбит/сек
Ширина : 352 пикс.
Высота : 288 пикс.
Соотношение сторон : 4:3
Частота кадров : 25,000 кадр/сек
Стандарт вещания : PAL
Цветовое пространство : YUV
Подвыборка цветности : 4:2:0
Битовая глубина : 8 бит
Тип развёртки : Прогрессивная
Метод сжатия : С потерями
Бит/(Пиксели*Кадры) : 15.601
Размер потока : 1000 Мбайт (98%)
Библиотека кодирования : TMPGEnc XPress 4.7.7.307
Аудио
Идентификатор : 189 (0xBD)-128 (0x80)
Формат : AC-3
Формат/Информация : Audio Coding 3
Расширение режима : CM (complete main)
Режим смешивания : DVD-Video
Продолжительность : 3 м. 31 с.
Вид битрейта : Постоянный
Битрейт : 128 Кбит/сек
Канал(ы) : 2 канала(ов)
Расположение каналов : Front: L R
Частота : 48,0 КГц
Битовая глубина : 16 бит
Метод сжатия : С потерями
Размер потока : 3,23 Мбайт (0%)

Скриншоты меню

Скриншоты сериала

Показать сообщения:    

Текущее время: 19-Окт 13:45

Часовой пояс: UTC - 1


Вы не можете начинать темы
Вы не можете отвечать на сообщения
Вы не можете редактировать свои сообщения
Вы не можете удалять свои сообщения
Вы не можете голосовать в опросах
Вы не можете прикреплять файлы к сообщениям
Вы не можете скачивать файлы

!ВНИМАНИЕ!
Сайт не предоставляет электронные версии произведений, а занимается лишь коллекционированием и каталогизацией ссылок, присылаемых и публикуемых на форуме нашими читателями. Если вы являетесь правообладателем какого-либо представленного материала и не желаете, чтобы ссылка на него находилась в нашем каталоге, свяжитесь с нами, и мы незамедлительно удалим ее. Файлы для обмена на трекере предоставлены пользователями сайта, и администрация не несет ответственности за их содержание. Просьба не заливать файлы, защищенные авторскими правами, а также файлы нелегального содержания!