Бостонский душитель / The Boston Strangler (Ричард Флайшер / Richard Fleischer) [1968, США, триллер, драма, криминал, детектив, BDRemux 1080p] 2x MVO (20th century Fox, Петербург - 5 канал) + Sub Rus, Eng + Original Eng :: Ивановский Торрент трекер
Важное объявление!
У Нас Все раздачи мультитрекерные, при нуле пиров в релизах, можете смело вставать на закачку!
Статистика раздачи
Размер:     |    Зарегистрирован:     |    Скачан:     |   
Нет
 
     
 
 
Автор Сообщение

HUNTER

Стаж:
4 года 11 месяцев
Сообщений:
66098

Репутация: 101

[+] [-]
Вне форума [Профиль] [ЛС]

Бостонский душитель / The Boston Strangler
Год выпуска: 1968
Страна: США
Жанр: триллер, драма, криминал, детектив
Продолжительность: 01:56:11
Перевод: Профессиональный (многоголосый закадровый) - 20th century Fox
Перевод 2: Профессиональный (многоголосый закадровый) - Петербург - 5 канал
Субтитры: русские, английские
Режиссёр: Ричард Флайшер / Richard Fleischer
В ролях: Тони Кертис, Генри Фонда, Джордж Кеннеди, Майк Келлин, Херд Хэтфилд, Мюррэй Хэмилтон, Джефф Кори, Сэлли Келлермен, Уильям Маршалл, Джордж Восковек
Описание: В Бостоне и близлежащих районах в период с июня 1962 по январь 1964 годы были убиты и изнасилованы одиннадцать женщин. Полиция во главе с Джоном Боттомли находится в тупике. Преступник не оставляет практически никаких улик. Не помогает даже привлечение к расследованию экстрасенса. В конце концов, убийцу ловят. Преследуемый после одного из своих преступлений, он случайно попадает под машину и его задерживает полиция. Им оказывается Альберто Де Сальво, сантехник, имеющий прекрасную жену и двух детей.
В больнице Де Сальву допрашивают, но он ничего не может вспомнить, а прямых доказательств убийств нет. Полиция, ведущая расследование, обращает внимание на укус на его руке, который мог быть оставлен последней жертвой его неудавшегося покушения. Но девушка из-за травмы головы не может уверенно опознать в Де Сальво нападавшего. Джону Боттомли приходится начать с обвиняемым игру в «кошки-мышки». Вина Альберта Де Сальво будет доказана по многочисленным косвенным уликам. В конце концов Альберто Де Сальво признается во всех убийствах при обстоятельствах, которые спустя много лет были признаны весьма сомнительными
Тип релиза: BDRemux 1080p
Контейнер: MKV
Видео: MPEG-4 AVC, 1920x1080 (16:9), 23.976 fps, 37000 kbps
Аудио 1: Russian AC3, 2.0 ch, 48KHz, 16-bit, 192 Kbps - 20th century Fox
Аудио 2: Russian AC3, 2.0 ch, 48KHz, 16-bit, 192 Kbps - Петербург - 5 канал
Аудио 3: English DTS-HD MA 2.0, 842 kbps, 48 kHz, 16-bit (DTS Core: 2.0, 768 kbps, 48 kHz, 16-bit)
Формат субтитров: softsub (SRT)
Навигация по главам: есть

Сэмпл

MediaInfo

General
Unique ID : 190181589192447570241118125228288635541 (0x8F13A449B5250C8B8D916478938BF295)
Complete name : F:\Кино\Бостонский душитель (BDRemux 1080p, 1968).mkv
Format : Matroska
Format version : Version 4 / Version 2
File size : 30.6 GiB
Duration : 1h 56mn
Overall bit rate mode : Variable
Overall bit rate : 37.7 Mbps
Movie name : The Boston Strangler (1968)
Encoded date : UTC 2015-04-26 14:05:18
Writing application : mkvmerge v7.8.0 ('River Man') 64bit built on Mar 27 2015 16:31:37
Writing library : libebml v1.3.1 + libmatroska v1.4.2
Attachements : cover.jpg
_STATISTICS_WRITING_APP : mkvmerge v7.8.0 ('River Man') 64bit built on Mar 27 2015 16:31:37
_STATISTICS_WRITING_DATE_UTC : 2015-04-26 14:05:18
_STATISTICS_TAGS : BPS DURATION NUMBER_OF_FRAMES NUMBER_OF_BYTES
DURATION : 01:55:18.078000000
NUMBER_OF_FRAMES : 1507
NUMBER_OF_BYTES : 92382
Video
ID : 1
Format : AVC
Format/Info : Advanced Video Codec
Format profile : High@L4.1
Format settings, CABAC : Yes
Format settings, ReFrames : 4 frames
Codec ID : V_MPEG4/ISO/AVC
Bit rate mode : Constant
Nominal bit rate : 37.0 Mbps
Width : 1 920 pixels
Height : 1 080 pixels
Display aspect ratio : 16:9
Frame rate mode : Variable
Original frame rate : 23.976 fps
Standard : NTSC
Color space : YUV
Chroma subsampling : 4:2:0
Bit depth : 8 bits
Scan type : Progressive
Bits/(Pixel*Frame) : 0.744
Default : Yes
Forced : No
Color primaries : BT.709
Transfer characteristics : BT.709
Matrix coefficients : BT.709
Color range : Limited
Audio #1
ID : 2
Format : AC-3
Format/Info : Audio Coding 3
Format profile : Dolby Digital
Mode extension : CM (complete main)
Format settings, Endianness : Big
Codec ID : A_AC3
Duration : 1h 56mn
Bit rate mode : Constant
Bit rate : 192 Kbps
Channel(s) : 2 channels
Channel positions : Front: L R
Sampling rate : 48.0 KHz
Bit depth : 16 bits
Compression mode : Lossy
Stream size : 160 MiB (1%)
Title : 20th Century Fox
Language : Russian
Default : No
Forced : No
Audio #2
ID : 3
Format : AC-3
Format/Info : Audio Coding 3
Format profile : Dolby Digital
Mode extension : CM (complete main)
Format settings, Endianness : Big
Codec ID : A_AC3
Duration : 1h 56mn
Bit rate mode : Constant
Bit rate : 192 Kbps
Channel(s) : 2 channels
Channel positions : Front: L R
Sampling rate : 48.0 KHz
Bit depth : 16 bits
Compression mode : Lossy
Stream size : 160 MiB (1%)
Title : Петербург - 5 канал
Language : Russian
Default : No
Forced : No
Audio #3
ID : 4
Format : DTS
Format/Info : Digital Theater Systems
Format profile : MA / Core
Mode : 16
Format settings, Endianness : Big
Codec ID : A_DTS
Duration : 1h 56mn
Bit rate mode : Variable
Bit rate : Unknown / 768 Kbps
Channel(s) : 2 channels
Channel positions : Front: L R
Sampling rate : 48.0 KHz
Bit depth : 16 bits
Compression mode : Lossless / Lossy
Title : DTS-HD MA 2.0
Language : English
Default : No
Forced : No
Text #1
ID : 5
Format : UTF-8
Codec ID : S_TEXT/UTF8
Codec ID/Info : UTF-8 Plain Text
Language : Russian
Default : No
Forced : No
Text #2
ID : 6
Format : UTF-8
Codec ID : S_TEXT/UTF8
Codec ID/Info : UTF-8 Plain Text
Language : English
Default : No
Forced : No
Menu
00:00:00.000 : en:00:00:00.000
00:02:59.429 : en:00:02:59.429
00:07:40.460 : en:00:07:40.460
00:11:25.518 : en:00:11:25.518
00:17:41.727 : en:00:17:41.727
00:22:31.350 : en:00:22:31.350
00:25:50.966 : en:00:25:50.966
00:28:52.356 : en:00:28:52.356
00:35:38.595 : en:00:35:38.595
00:39:01.130 : en:00:39:01.130
00:44:51.731 : en:00:44:51.731
00:52:33.567 : en:00:52:33.567
00:58:33.343 : en:00:58:33.343
01:00:17.447 : en:01:00:17.447
01:05:16.913 : en:01:05:16.913
01:11:49.847 : en:01:11:49.847
01:15:30.693 : en:01:15:30.693
01:21:18.957 : en:01:21:18.957
01:23:41.141 : en:01:23:41.141
01:33:10.293 : en:01:33:10.293
01:36:19.941 : en:01:36:19.941
01:39:49.734 : en:01:39:49.734
01:41:59.697 : en:01:41:59.697

Скриншоты


_________________
Показать сообщения:    

Текущее время: Сегодня 05:34

Часовой пояс: GMT



Вы не можете начинать темы
Вы не можете отвечать на сообщения
Вы не можете редактировать свои сообщения
Вы не можете удалять свои сообщения
Вы не можете голосовать в опросах
Вы не можете прикреплять файлы к сообщениям
Вы не можете скачивать файлы