Важное объявление!
У Нас Все раздачи мультитрекерные, при нуле пиров в релизах, можете смело вставать на закачку!
 
Автор Сообщение

HUNTER

Стаж:
4 года 7 месяцев
Сообщений:
61449

Репутация: 101

[+] [-]
Вне форума [Профиль] [ЛС]

Бонни и Клайд / Bonnie and Clyde
Страна: США
Студия: Warner Brothers, Seven Arts, Tatira-Hiller Productions
Жанр: Драма, криминал, биография, реальные события
Год выпуска: 1967
Продолжительность: 01:51:30
Перевод 1: Профессиональный (дублированный) (Варус Видео)
Перевод 2: Профессиональный (многоголосый закадровый) (DVD Magiya)
Перевод 3: Профессиональный (двухголосый закадровый) (SomeWax)
Cубтитры: русские английские
Оригинальная аудиодорожка: английский
Режиссер: Артур Пенн / Arthur Penn
В ролях: Уоррен Битти, Фэй Данауэй, Майкл Дж. Поллард, Джин Хэкмен, Эстелл Парсонс, Денвер Пайл, Даб Тейлор, Эванс Эванс, Джин Уайлдер, Марта Эдкок
Описание: Молодые и отчаянные любовники Бонни и Клайд легко и изящно грабят банки в 30-е годы XX века. Но их романтизм и «робингудство» довольно быстро перерастают в лужи и реки крови, в хаос и грязь смерти, а судьба пророчит им неудачу

Тип релиза: BDRip 720p
Контейнер: MKV
Видео: MPEG-4 AVC, 6500 Кбит/с, 1280x720
Аудио 1: Русский (AC3, 2 ch, 224 Кбит/с) DUB (Варус Видео)
Аудио 2: Русский (AC3, 2 ch, 192 Кбит/с) MVO (DVD Magiya)
Аудио 3: Русский (AC3, 2 ch, 256 Кбит/с) DVO (SomeWax)
Аудио 4: Английский (AC3, 1 ch, 192 Кбит/с) Oригинал
Cубтитры: русские английские
Релиз от:

MediaInfo


Общее
Уникальный идентификатор : 201382693658266267916092577134374987621 (0x9780E5603DDF69C69EE731ACC56EA765)
Полное имя : F:\КиноЗАЛ - 2\Bonni.i.Klaid.1967.BDRip 720p.Rip.by.grab777.mkv
Формат : Matroska
Версия формата : Version 2
Размер файла : 5,70 Гбайт
Продолжительность : 1 ч. 51 м.
Общий поток : 7319 Кбит/сек
Название фильма : Бонни и Клайд / Bonnie and Clyde (1967) BDRip 720p.Rip.by.grab777
Дата кодирования : UTC 2014-09-28 20:00:46
Программа кодирования : mkvmerge v5.8.0 ('No Sleep / Pillow') built on Sep 2 2012 15:37:04
Библиотека кодирования : libebml v1.2.3 + libmatroska v1.3.0
Attachment : Yes / Yes / Yes
Видео
Идентификатор : 1
Формат : AVC
Формат/Информация : Advanced Video Codec
Профиль формата : High@L4.1
Параметр CABAC формата : Да
Параметр ReFrames формата : 7 кадров
Идентификатор кодека : V_MPEG4/ISO/AVC
Продолжительность : 1 ч. 51 м.
Битрейт : 6500 Кбит/сек
Ширина : 1280 пикселей
Высота : 720 пикселей
Соотношение сторон : 16:9
Режим частоты кадров : Постоянный
Частота кадров : 23,976 кадра/сек
Цветовое пространство : YUV
Субдискретизация насыщенности : 4:2:0
Битовая глубина : 8 бит
Тип развёртки : Прогрессивная
Бит/(Пиксели*Кадры) : 0.294
Размер потока : 4,91 Гбайт (86%)
Заголовок : Rip.by.grab777
Библиотека кодирования : x264 core 128 r2216M 198a7ea
Настройки программы : cabac=1 / ref=8 / deblock=1:3:3 / analyse=0x3:0x133 / me=umh / subme=9 / psy=1 / psy_rd=1.00:0.20 / mixed_ref=1 / me_range=32 / chroma_me=1 / trellis=2 / 8x8dct=1 / cqm=0 / deadzone=21,11 / fast_pskip=1 / chroma_qp_offset=-3 / threads=4 / lookahead_threads=1 / sliced_threads=0 / nr=0 / decimate=1 / interlaced=0 / bluray_compat=0 / constrained_intra=0 / bframes=8 / b_pyramid=1 / b_adapt=2 / b_bias=3 / direct=3 / weightb=1 / open_gop=0 / weightp=2 / keyint=230 / keyint_min=23 / scenecut=40 / intra_refresh=0 / rc_lookahead=60 / rc=2pass / mbtree=1 / bitrate=6500 / ratetol=1.0 / qcomp=0.60 / qpmin=10 / qpmax=51 / qpstep=4 / cplxblur=20.0 / qblur=0.5 / vbv_maxrate=31250 / vbv_bufsize=31250 / nal_hrd=none / ip_ratio=1.40 / aq=1:1.00
Язык : English
Default : Нет
Forced : Нет
Аудио #1
Идентификатор : 2
Формат : AC-3
Формат/Информация : Audio Coding 3
Расширение режима : CM (complete main)
Параметр Endianness формата : Big
Идентификатор кодека : A_AC3
Продолжительность : 1 ч. 51 м.
Вид битрейта : Постоянный
Битрейт : 224 Кбит/сек
Каналы : 2 канала
Расположение каналов : Front: L R
Частота : 48,0 КГц
Битовая глубина : 16 бит
Метод сжатия : С потерями
Размер потока : 179 Мбайт (3%)
Заголовок : DUB (Варус Видео)
Язык : Russian
Default : Да
Forced : Нет
Аудио #2
Идентификатор : 3
Формат : AC-3
Формат/Информация : Audio Coding 3
Расширение режима : CM (complete main)
Параметр Endianness формата : Big
Идентификатор кодека : A_AC3
Продолжительность : 1 ч. 51 м.
Вид битрейта : Постоянный
Битрейт : 192 Кбит/сек
Каналы : 2 канала
Расположение каналов : Front: L R
Частота : 48,0 КГц
Битовая глубина : 16 бит
Метод сжатия : С потерями
Размер потока : 153 Мбайт (3%)
Заголовок : MVO (DVD Magiya)
Язык : Russian
Default : Нет
Forced : Нет
Аудио #3
Идентификатор : 4
Формат : AC-3
Формат/Информация : Audio Coding 3
Расширение режима : CM (complete main)
Параметр Endianness формата : Big
Идентификатор кодека : A_AC3
Продолжительность : 1 ч. 51 м.
Вид битрейта : Постоянный
Битрейт : 256 Кбит/сек
Каналы : 2 канала
Расположение каналов : Front: L R
Частота : 48,0 КГц
Битовая глубина : 16 бит
Метод сжатия : С потерями
Размер потока : 204 Мбайт (3%)
Заголовок : DVO (SomeWax)
Язык : Russian
Default : Нет
Forced : Нет
Аудио #4
Идентификатор : 5
Формат : AC-3
Формат/Информация : Audio Coding 3
Расширение режима : CM (complete main)
Параметр Endianness формата : Big
Идентификатор кодека : A_AC3
Продолжительность : 1 ч. 51 м.
Вид битрейта : Постоянный
Битрейт : 192 Кбит/сек
Каналы : 1 канал
Расположение каналов : Front: C
Частота : 48,0 КГц
Битовая глубина : 16 бит
Метод сжатия : С потерями
Размер потока : 153 Мбайт (3%)
Заголовок : Original
Язык : English
Default : Нет
Forced : Нет
Текст #1
Идентификатор : 6
Формат : UTF-8
Идентификатор кодека : S_TEXT/UTF8
Идентификатор кодека/Информация : UTF-8 Plain Text
Язык : Russian
Default : Нет
Forced : Нет
Текст #2
Идентификатор : 7
Формат : UTF-8
Идентификатор кодека : S_TEXT/UTF8
Идентификатор кодека/Информация : UTF-8 Plain Text
Язык : English
Default : Нет
Forced : Нет
Меню
00:00:00.000 : en:Chapter 1
00:01:55.855 : en:Chapter 2
00:06:26.123 : en:Chapter 3
00:08:28.411 : en:Chapter 4
00:13:37.467 : en:Chapter 5
00:17:22.356 : en:Chapter 6
00:21:16.839 : en:Chapter 7
00:25:06.817 : en:Chapter 8
00:28:06.328 : en:Chapter 9
00:29:23.863 : en:Chapter 10
00:34:00.679 : en:Chapter 11
00:37:01.233 : en:Chapter 12
00:39:15.533 : en:Chapter 13
00:40:38.782 : en:Chapter 14
00:42:56.835 : en:Chapter 15
00:46:30.297 : en:Chapter 16
00:48:55.190 : en:Chapter 17
00:55:17.861 : en:Chapter 18
00:58:55.327 : en:Chapter 19
01:01:15.382 : en:Chapter 20
01:07:56.280 : en:Chapter 21
01:14:22.996 : en:Chapter 22
01:17:18.921 : en:Chapter 23
01:19:00.688 : en:Chapter 24
01:22:36.819 : en:Chapter 25
01:25:21.732 : en:Chapter 26
01:28:26.999 : en:Chapter 27
01:30:52.018 : en:Chapter 28
01:34:48.085 : en:Chapter 29
01:37:43.676 : en:Chapter 30
01:40:21.958 : en:Chapter 31
01:41:31.860 : en:Chapter 32
01:43:40.238 : en:Chapter 33
01:46:54.430 : en:Chapter 34
01:50:02.366 : en:Chapter 35

Ограничение

16+ зрителям, достигшим 16 лет

Интересно

• На роль Бонни Паркер, среди прочих, пробовались Джейн Фонда, Шер и Ширли Маклейн.
• Хозяева студии Warner Bros. не очень верили в этот проект и даже предложили Уоррену Битти вместо гонорара 40 процентов от выручки.
• После того, как Фэй Данауэй надела берет на съемках фильма, в США наступил пик популярности этих головных уборов.

Награды

Главная премия на МКФ в Мар-дель-Плата в 1968 году, «Бодиль» в Дании за лучший иностранный фильм, 2 приза «Кинема дзюнпо» в Японии — за лучшую иностранную ленту и лучшему иностранному режиссёру по итогам 1968 года, включён в 1992 году в Национальный регистр фильмов
Оскар, 1968 год
Победитель (2):
Лучшая женская роль второго плана (Эстелл Парсонс)
Лучшая работа оператора
Номинации (8):
Лучший фильм
Лучшая мужская роль (Уоррен Битти)
Лучшая женская роль (Фэй Данауэй)
Лучшая мужская роль второго плана (Майкл Дж. Поллард)
Лучшая мужская роль второго плана (Джин Хэкмен)
Лучший режиссер (Артур Пенн)
Лучший оригинальный сценарий
Лучшие костюмы
Золотой глобус, 1968 год
Номинации (7):
Лучшая женская роль (драма) (Фэй Данауэй)
Лучшая мужская роль (драма) (Уоррен Битти)
Лучший фильм (драма)
Лучший режиссер (Артур Пенн)
Лучшая мужская роль второго плана (Майкл Дж. Поллард)
Лучший сценарий
Самый многообещающий новичок среди мужчин (Майкл Дж. Поллард)
Британская академия, 1968 год
Победитель (2):
Самый многообещающий новичок (Майкл Дж. Поллард)
Самый многообещающий новичок (Фэй Данауэй)
Номинации (2):
Лучший фильм
Лучший иностранный актер (Уоррен Битти)

Скриншоты




_________________
Показать сообщения:    

Текущее время: Сегодня 22:36

Часовой пояс: GMT



Вы не можете начинать темы
Вы не можете отвечать на сообщения
Вы не можете редактировать свои сообщения
Вы не можете удалять свои сообщения
Вы не можете голосовать в опросах
Вы не можете прикреплять файлы к сообщениям
Вы не можете скачивать файлы
Наши партнеры: интернет магазин Ивановского трикотажа textilla.ru