Ивановский Торрент трекер
Яндекс.Погода
Статистика раздачи
Размер:  6.07 GB   |    Зарегистрирован:  1 год 4 месяца   |    Скачан:  0 раз

Полного источника не было: Никогда

 
     
 
 
 

[Цитировать]
HUNTER

Большой Толстый Лжец / Большой Толстый Лгун / Big Fat Liar
Страна: США, Германия
Жанр: комедия, приключения, семейный
Год выпуска: 2002
Продолжительность: 01:27:47
Перевод: Профессиональный (двухголосый закадровый) - П. Гланц и И. Королёва
+ Профессиональный (двухголосый закадровый) - Премьер Видео Фильм
+ Профессиональный (многоголосый закадровый) - R5
+ Профессиональный (многоголосый закадровый) - СТС
Cубтитры: Russian, Ukrainian (x4), English
Оригинальная аудиодорожка: английский-Режиссер: Шон Леви / Shawn Levy-В ролях: Фрэнки Муниз (Jason Shepherd), Пол Джаматти (Marty Wolf), Аманда Байнс (Kaylee), Аманда Детмер (Monty Kirkham), Дональд Фэйсон (Frank Jackson), Сандра О (Mrs. Phyllis Caldwell), Расселл Хорнсби (Marcus Duncan), Майкл Брайан Френч (Harry Shepherd), Кристин Туччи (Carol Shepherd), Ли Мэйджорс (Vince)-Описание: 14-летний Джейсон Шеферд узнает, что его школьная работа-сценарий под названием «Неисправимый врун» была украдена голливудским продюсером и превратилась с его помощью в настоящий блокбастер. Отправившись в Лос-Анджелес со своей подружкой Кейли, парень пытается вернуть себе свои права. И с помощью разных уловок ставит на колени известного продюсера!-Релиз:
| Рип от SbR-Качество видео: BDRip | Sample
Формат видео: MKV
Видео: 1280x694 at 23.976 fps, x264@L4.1, ~7497 kbps avg
Аудио: Russian: 48 kHz, AC3, 3/2 (L,C,R,l,r) + LFE ch, ~640 kbps avg |П. Гланц и И. Королёва|
Аудио: Russian: 48 kHz, AC3, 2/0 (L,R) ch, ~192.00 kbps avg |Премьер Видео Фильм|
Аудио: Russian: 48 kHz, AC3, 3/2 (L,C,R,l,r) + LFE ch, ~384 kbps avg |R5|
Аудио: Russian: 48 kHz, AC3, 2/0 (L,R) ch, ~192.00 kbps avg |СТС|
Аудио: Ukrainian: 48 kHz, AC3, 2/0 (L,R) ch, ~192.00 kbps avg |Двухголосый закадровый|
Аудио: English: 48 kHz, AC3, 3/2 (L,C,R,l,r) + LFE ch, ~640 kbps avg
Аудио: English: 48 kHz, AAC, 2/0 (L,R) ch, ~72.00 kbps avg |Commentary by Shawn Levy|
Аудио: English: 48 kHz, AAC, 2/0 (L,R) ch, ~77.00 kbps avg |Commentary by Frankie Muniz|

Дополнительно

Цитата:
  • Сохранены оригинальные чаптеры как на Blu-ray.
  • За исходный оригинальный диск спасибо dertuzip.
  • За чистый голос для Аудио #1 спасибо glanz.
  • За исходное Аудио #5 спасибо GRONHOLD.
  • Субтитры #1 были полностью откорректированы и частично дополнены.
  • За распознанные украинские субтитры ( полные, форсированные, субтитры к Аудио #7, субтитры к Аудио #8 ) спасибо Elheym.

MediaInfo

Format                      : Matroska
Format version              : Version 4 / Version 2
File size                   : 6.07 GiB
Duration                    : 1h 27mn
Overall bit rate            : 9 892 Kbps
Encoded date                : UTC 2016-07-31 05:00:51
Writing application         : mkvmerge v9.3.1 ('Mask Machine') 32bit
Writing library             : libebml v1.3.4 + libmatroska v1.4.5
Cover                       : Yes
Attachments                 : cover.jpg
Video
ID                          : 1
Format                      : AVC
Format/Info                 : Advanced Video Codec
Format profile              : High@L4.1
Format settings, CABAC      : Yes
Format settings, ReFrames   : 9 frames
Codec ID                    : V_MPEG4/ISO/AVC
Duration                    : 1h 27mn
Bit rate                    : 7 500 Kbps
Width                       : 1 280 pixels
Height                      : 694 pixels
Display aspect ratio        : 1.85:1
Frame rate mode             : Constant
Frame rate                  : 23.976 (23976/1000) fps
Color space                 : YUV
Chroma subsampling          : 4:2:0
Bit depth                   : 8 bits
Scan type                   : Progressive
Bits/(Pixel*Frame)          : 0.352
Stream size                 : 4.60 GiB (76%)
Writing library             : x264 core 148 r2705+54 9f484c1 t_mod_Custom [8-bit@all X86_64]
Encoding settings           : cabac=1 / ref=9 / deblock=1:-3:-3 / analyse=0x3:0x133 / me=umh / subme=10 / psy=1 / fade_compensate=0.00 / psy_rd=1.10:0.05 / mixed_ref=1 / me_range=32 / chroma_me=1 / trellis=2 / 8x8dct=1 / cqm=0 / deadzone=21,11 / fast_pskip=0 / chroma_qp_offset=-3 / threads=6 / lookahead_threads=1 / sliced_threads=0 / nr=0 / decimate=1 / interlaced=0 / bluray_compat=0 / constrained_intra=0 / fgo=0 / bframes=8 / b_pyramid=2 / b_adapt=2 / b_bias=0 / direct=3 / weightb=1 / open_gop=0 / weightp=2 / keyint=250 / keyint_min=23 / scenecut=40 / intra_refresh=0 / rc=2pass / mbtree=0 / bitrate=7500 / ratetol=1.0 / qcomp=0.60 / qpmin=0:0:0 / qpmax=69:69:69 / qpstep=4 / cplxblur=20.0 / qblur=0.5 / ip_ratio=1.30 / pb_ratio=1.20 / aq=1:0.80 / aq-sensitivity=10.00 / aq-factor=1.00:1.00:1.00 / aq2=1:0.70 / aq2-sensitivity=15.00 / aq2-factor=1.00:1.00:1.00 / aq3=1:[0.60:0.60]:[0.60:0.60]:[0.60:0.60]:[0.60:0.60] / aq3-sensitivity=10.00 / aq3-factor=[1.00:1.00]:[1.00:1.00]:[1.00:1.00] / aq3-boundary=192:64:24
Language                    : English
Default                     : Yes
Forced                      : No
Color range                 : Limited
Matrix coefficients         : BT.709
Audio #1
ID                          : 2
Format                      : AC-3
Format/Info                 : Audio Coding 3
Mode extension              : CM (complete main)
Format settings, Endianness : Big
Codec ID                    : A_AC3
Duration                    : 1h 27mn
Bit rate mode               : Constant
Bit rate                    : 640 Kbps
Channel(s)                  : 6 channels
Channel positions           : Front: L C R, Side: L R, LFE
Sampling rate               : 48.0 KHz
Frame rate                  : 31.250 fps (1536 spf)
Compression mode            : Lossy
Stream size                 : 402 MiB (6%)
Title                       : Двухголосый закадровый, П. Гланц и И. Королёва
Language                    : Russian
Default                     : Yes
Forced                      : No
Audio #2
ID                          : 3
Format                      : AC-3
Format/Info                 : Audio Coding 3
Mode extension              : CM (complete main)
Format settings, Endianness : Big
Codec ID                    : A_AC3
Duration                    : 1h 27mn
Bit rate mode               : Constant
Bit rate                    : 192 Kbps
Channel(s)                  : 2 channels
Channel positions           : Front: L R
Sampling rate               : 48.0 KHz
Frame rate                  : 31.250 fps (1536 spf)
Compression mode            : Lossy
Stream size                 : 121 MiB (2%)
Title                       : Двухголосый закадровый
Language                    : Russian
Default                     : No
Forced                      : No
Audio #3
ID                          : 4
Format                      : AC-3
Format/Info                 : Audio Coding 3
Mode extension              : CM (complete main)
Format settings, Endianness : Big
Codec ID                    : A_AC3
Duration                    : 1h 27mn
Bit rate mode               : Constant
Bit rate                    : 384 Kbps
Channel(s)                  : 6 channels
Channel positions           : Front: L C R, Side: L R, LFE
Sampling rate               : 48.0 KHz
Frame rate                  : 31.250 fps (1536 spf)
Compression mode            : Lossy
Stream size                 : 241 MiB (4%)
Title                       : Многоголосый закадровый, лицензия
Language                    : Russian
Default                     : No
Forced                      : No
Audio #4
ID                          : 5
Format                      : AC-3
Format/Info                 : Audio Coding 3
Mode extension              : CM (complete main)
Format settings, Endianness : Big
Codec ID                    : A_AC3
Duration                    : 1h 27mn
Bit rate mode               : Constant
Bit rate                    : 192 Kbps
Channel(s)                  : 2 channels
Channel positions           : Front: L R
Sampling rate               : 48.0 KHz
Frame rate                  : 31.250 fps (1536 spf)
Compression mode            : Lossy
Stream size                 : 121 MiB (2%)
Title                       : Многоголосый закадровый, СТС
Language                    : Russian
Default                     : No
Forced                      : No
Audio #5
ID                          : 6
Format                      : AC-3
Format/Info                 : Audio Coding 3
Mode extension              : CM (complete main)
Format settings, Endianness : Big
Codec ID                    : A_AC3
Duration                    : 1h 27mn
Bit rate mode               : Constant
Bit rate                    : 192 Kbps
Channel(s)                  : 2 channels
Channel positions           : Front: L R
Sampling rate               : 48.0 KHz
Frame rate                  : 31.250 fps (1536 spf)
Compression mode            : Lossy
Stream size                 : 121 MiB (2%)
Title                       : Двухголосый закадровый
Language                    : Ukrainian
Default                     : No
Forced                      : No
Audio #6
ID                          : 7
Format                      : AC-3
Format/Info                 : Audio Coding 3
Mode extension              : CM (complete main)
Format settings, Endianness : Big
Codec ID                    : A_AC3
Duration                    : 1h 27mn
Bit rate mode               : Constant
Bit rate                    : 640 Kbps
Channel(s)                  : 6 channels
Channel positions           : Front: L C R, Side: L R, LFE
Sampling rate               : 48.0 KHz
Frame rate                  : 31.250 fps (1536 spf)
Compression mode            : Lossy
Stream size                 : 402 MiB (6%)
Language                    : English
Default                     : No
Forced                      : No
Audio #7
ID                          : 8
Format                      : AAC
Format/Info                 : Advanced Audio Codec
Format profile              : LC
Codec ID                    : A_AAC
Duration                    : 1h 27mn
Bit rate                    : 72.0 Kbps
Channel(s)                  : 2 channels
Channel positions           : Front: L R
Sampling rate               : 48.0 KHz
Frame rate                  : 46.875 fps (1024 spf)
Compression mode            : Lossy
Delay relative to video     : 9ms
Stream size                 : 44.4 MiB (1%)
Title                       : Commentary by Shawn Levy
Language                    : English
Default                     : No
Forced                      : No
Audio #8
ID                          : 9
Format                      : AAC
Format/Info                 : Advanced Audio Codec
Format profile              : LC
Codec ID                    : A_AAC
Duration                    : 1h 27mn
Bit rate                    : 77.2 Kbps
Channel(s)                  : 2 channels
Channel positions           : Front: L R
Sampling rate               : 48.0 KHz
Frame rate                  : 46.875 fps (1024 spf)
Compression mode            : Lossy
Delay relative to video     : 9ms
Stream size                 : 48.5 MiB (1%)
Title                       : Commentary by Frankie Muniz
Language                    : English
Default                     : No
Forced                      : No
Text #1
ID                          : 10
Format                      : UTF-8
Codec ID                    : S_TEXT/UTF8
Codec ID/Info               : UTF-8 Plain Text
Duration                    : 1h 22mn
Bit rate                    : 112 bps
Count of elements           : 907
Stream size                 : 67.9 KiB (0%)
Language                    : Russian
Default                     : No
Forced                      : No
Text #2
ID                          : 11
Format                      : UTF-8
Codec ID                    : S_TEXT/UTF8
Codec ID/Info               : UTF-8 Plain Text
Duration                    : 1h 25mn
Bit rate                    : 14 bps
Count of elements           : 169
Stream size                 : 9.04 KiB (0%)
Title                       : forced
Language                    : Ukrainian
Default                     : No
Forced                      : No
Text #3
ID                          : 12
Format                      : UTF-8
Codec ID                    : S_TEXT/UTF8
Codec ID/Info               : UTF-8 Plain Text
Duration                    : 1h 22mn
Bit rate                    : 107 bps
Count of elements           : 1086
Stream size                 : 64.6 KiB (0%)
Language                    : Ukrainian
Default                     : No
Forced                      : No
Text #4
ID                          : 13
Format                      : UTF-8
Codec ID                    : S_TEXT/UTF8
Codec ID/Info               : UTF-8 Plain Text
Duration                    : 1h 25mn
Bit rate                    : 172 bps
Count of elements           : 1377
Stream size                 : 108 KiB (0%)
Title                       : Commentary by Shawn Levy
Language                    : Ukrainian
Default                     : No
Forced                      : No
Text #5
ID                          : 14
Format                      : UTF-8
Codec ID                    : S_TEXT/UTF8
Codec ID/Info               : UTF-8 Plain Text
Duration                    : 1h 23mn
Bit rate                    : 146 bps
Count of elements           : 1279
Stream size                 : 89.9 KiB (0%)
Title                       : Commentary by Frankie Muniz
Language                    : Ukrainian
Default                     : No
Forced                      : No
Text #6
ID                          : 15
Format                      : UTF-8
Codec ID                    : S_TEXT/UTF8
Codec ID/Info               : UTF-8 Plain Text
Duration                    : 1h 22mn
Bit rate                    : 69 bps
Count of elements           : 1312
Stream size                 : 41.8 KiB (0%)
Language                    : English
Default                     : No
Forced                      : No
Menu
00:00:00.000                : en:00:00:00.000
00:05:10.143                : en:00:05:10.143
00:07:01.170                : en:00:07:01.170
00:12:32.793                : en:00:12:32.793
00:15:39.730                : en:00:15:39.730
00:21:27.953                : en:00:21:27.953
00:33:34.804                : en:00:33:34.804
00:39:29.617                : en:00:39:29.617
00:44:46.809                : en:00:44:46.809
00:47:26.093                : en:00:47:26.093
00:52:52.502                : en:00:52:52.502
00:58:16.367                : en:00:58:16.367
01:03:34.393                : en:01:03:34.393
01:12:25.716                : en:01:12:25.716
01:16:23.245                : en:01:16:23.245
01:18:57.941                : en:01:18:57.941
01:20:46.550                : en:01:20:46.550
01:22:55.053                : en:01:22:55.053

Скриншоты

[iv-torrents.ru].t58785.torrent
Торрент: Зарегистрирован [ 2016-08-01 19:56 ] · 167B59CFA4D3C715CE4C46FB0BD7850EDD55D4B1

Скачать .torrent

Скачать

31 KB

Статус: проверено
Скачан: 0 раз
Размер: 6.07 GB
terms.php
Похожие темы


Показать сообщения:    

Текущее время: 17-Дек 06:22

Часовой пояс: UTC ± 0


Вы не можете начинать темы
Вы не можете отвечать на сообщения
Вы не можете редактировать свои сообщения
Вы не можете удалять свои сообщения
Вы не можете голосовать в опросах
Вы не можете прикреплять файлы к сообщениям
Вы можете скачивать файлы

!ВНИМАНИЕ!
Сайт не предоставляет электронные версии произведений, а занимается лишь коллекционированием и каталогизацией ссылок, присылаемых и публикуемых на форуме нашими читателями. Если вы являетесь правообладателем какого-либо представленного материала и не желаете, чтобы ссылка на него находилась в нашем каталоге, свяжитесь с нами, и мы незамедлительно удалим ее. Файлы для обмена на трекере предоставлены пользователями сайта, и администрация не несет ответственности за их содержание. Просьба не заливать файлы, защищенные авторскими правами, а также файлы нелегального содержания!