Важное объявление!
У Нас Все раздачи мультитрекерные, при нуле пиров в релизах, можете смело вставать на закачку!
 
Автор Сообщение

HUNTER

Стаж:
4 года 7 месяцев
Сообщений:
61449

Репутация: 101

[+] [-]
Вне форума [Профиль] [ЛС]

Большой побег / Великий побег / The Great Escape
Страна: США
Жанр: драма, приключения, военный
Год выпуска: 1963
Продолжительность: 02:52:13
Перевод 1: Профессиональный (двухголосый закадровый) R5 Андрей Градов, Александр Рахленко.
Перевод 2: Профессиональный (двухголосый закадровый) НТВ+ Александр Белый, Алексей Борзунов.
Перевод 3: Одноголосый закадровый
Cубтитры: русские (форсированные – на немецкую и французскую речь), русские (полные), украинские, английские
Оригинальная аудиодорожка: английский
Режиссер: Джон Стёрджес / John Sturges
В ролях: Стив МакКуин, Джеймс Гарнер, Ричард Аттенборо, Джеймс Дональд, Чарльз Бронсон, Дональд Плезенс, Джеймс Коберн, Ханнес Мессемер, Дэвид МакКаллум, Гордон Джексон...
Описание: Фильм основан на реальных событиях. Американские, британские и канадские военнопленные осуществляют массовый побег из немецкого лагеря во время Второй мировой войны.
Сэмпл: http://multi-up.com/1014006
Тип релиза: BDRip 720p Исходник
Контейнер: MKV
Видео: 1280x546 (2.35:1), 23.976 fps, AVC, ~4500 Kbps, 0.269 bits/pixel
Аудио 1: Russian, 48.0 KHz, AC3, 6 ch, 448 Kbps - DVO R5
Аудио 2: Russian, 48.0 KHz, AC3, 2 ch, 160 Kbps - DVO НТВ+
Аудио 3: Russian, 48.0 KHz, AC3, 6 ch, 384 Kbps - VO
Аудио 4: English, 48.0 KHz, DTS, 6 ch, 1510 Kbps

Log

avs4x264.exe: -L x264_64.exe --pass 2 --bitrate 4500 --preset medium --ref 9 --deblock -1:-1 --merange 32 --bframes 10 --direct auto --b-adapt 2 --trellis 2 --no-fast-pskip --psy-rd 1.00:0.10 --partitions all --subme 10 --me umh --rc-lookahead 50 --sar 1:1 --stats "C:\Users\1\Desktop\The.Great.Escape.1963.log" --output "C:\Users\1\Desktop\The.Great.Escape.1963.mp4" "C:\Temp\0427.avs"
raw [info]: 1280x546p 1:1 @ 24000/1001 fps (cfr)
x264 [info]: using SAR=1/1
x264 [info]: using cpu capabilities: MMX2 SSE2Fast LZCNT
x264 [info]: profile High, level 4.0
x264 [info]: frame I:1589 Avg QP:14.91 size:132041
x264 [info]: frame P:48183 Avg QP:18.01 size: 51971
x264 [info]: frame B:197980 Avg QP:20.40 size: 15650
x264 [info]: consecutive B-frames: 1.4% 1.7% 2.7% 19.2% 15.7% 34.1% 10.2% 13.0% 1.2% 0.3% 0.4%
x264 [info]: mb I I16..4: 4.6% 74.7% 20.8%
x264 [info]: mb P I16..4: 0.3% 9.4% 1.4% P16..4: 36.0% 30.0% 20.2% 1.0% 0.3% skip: 1.5%
x264 [info]: mb B I16..4: 0.0% 1.4% 0.1% B16..8: 38.5% 13.0% 4.1% direct: 8.6% skip:34.3% L0:44.6% L1:43.8% BI:11.5%
x264 [info]: 8x8 transform intra:85.6% inter:58.7%
x264 [info]: direct mvs spatial:98.8% temporal:1.2%
x264 [info]: coded y,uvDC,uvAC intra: 92.7% 87.5% 73.5% inter: 38.5% 25.2% 7.9%
x264 [info]: i16 v,h,dc,p: 42% 14% 23% 21%
x264 [info]: i8 v,h,dc,ddl,ddr,vr,hd,vl,hu: 15% 9% 12% 8% 11% 11% 11% 10% 13%
x264 [info]: i4 v,h,dc,ddl,ddr,vr,hd,vl,hu: 31% 8% 5% 7% 10% 10% 10% 9% 10%
x264 [info]: i8c dc,h,v,p: 50% 18% 18% 13%
x264 [info]: Weighted P-Frames: Y:5.3% UV:1.9%
x264 [info]: ref P L0: 35.9% 10.3% 21.6% 6.7% 8.2% 4.6% 6.0% 2.6% 3.8% 0.2% 0.0%
x264 [info]: ref B L0: 68.4% 13.9% 6.1% 4.0% 2.8% 2.8% 1.4% 0.7%
x264 [info]: ref B L1: 93.6% 6.4%
x264 [info]: kb/s:4499.83
x264 [total]: encoded 247752 frames, 5.59 fps, 4499.83 kb/s

MediaInfo

General
Unique ID : 247495587546710479233174227755479620563 (0xBA31EA93AF53764D8C7E4FD170C45BD3)
Complete name : C:\The Great Escape.mkv
Format : Matroska
Format version : Version 4 / Version 2
File size : 8.43 GiB
Duration : 2h 52mn
Overall bit rate : 7 004 Kbps
Movie name : The Great Escape 1963 — RuTracker.org
Encoded date : UTC 2014-11-16 14:04:35
Writing application : mkvmerge v7.2.0 ('On Every Street') 64bit built on Sep 13 2014 15:52:10
Writing library : libebml v1.3.0 + libmatroska v1.4.1
Cover : Yes
DURATION : 02:52:13.334000000
NUMBER_OF_FRAMES : 968750
NUMBER_OF_BYTES : 1949125000
_STATISTICS_WRITING_APP : mkvmerge v7.2.0 ('On Every Street') 64bit built on Sep 13 2014 15:52:10
_STATISTICS_WRITING_DATE_UTC : 2014-11-16 14:04:35
_STATISTICS_TAGS : BPS DURATION NUMBER_OF_FRAMES NUMBER_OF_BYTES
Video
ID : 1
Format : AVC
Format/Info : Advanced Video Codec
Format profile : High@L4.0
Format settings, CABAC : Yes
Format settings, ReFrames : 9 frames
Codec ID : V_MPEG4/ISO/AVC
Duration : 2h 52mn
Bit rate : 4 500 Kbps
Width : 1 280 pixels
Height : 546 pixels
Display aspect ratio : 2.35:1
Frame rate mode : Constant
Frame rate : 23.976 fps
Color space : YUV
Chroma subsampling : 4:2:0
Bit depth : 8 bits
Scan type : Progressive
Bits/(Pixel*Frame) : 0.269
Stream size : 5.25 GiB (62%)
Writing library : x264 core 142 r2479 dd79a61
Encoding settings : cabac=1 / ref=9 / deblock=1:-1:-1 / analyse=0x3:0x133 / me=umh / subme=10 / psy=1 / psy_rd=1.00:0.10 / mixed_ref=1 / me_range=32 / chroma_me=1 / trellis=2 / 8x8dct=1 / cqm=0 / deadzone=21,11 / fast_pskip=0 / chroma_qp_offset=-3 / threads=6 / lookahead_threads=1 / sliced_threads=0 / nr=0 / decimate=1 / interlaced=0 / bluray_compat=0 / constrained_intra=0 / bframes=10 / b_pyramid=2 / b_adapt=2 / b_bias=0 / direct=3 / weightb=1 / open_gop=0 / weightp=2 / keyint=250 / keyint_min=23 / scenecut=40 / intra_refresh=0 / rc_lookahead=50 / rc=2pass / mbtree=1 / bitrate=4500 / ratetol=1.0 / qcomp=0.60 / qpmin=0 / qpmax=69 / qpstep=4 / cplxblur=20.0 / qblur=0.5 / ip_ratio=1.40 / aq=1:1.00
Default : Yes
Forced : No
Audio #1
ID : 2
Format : AC-3
Format/Info : Audio Coding 3
Mode extension : CM (complete main)
Format settings, Endianness : Big
Codec ID : A_AC3
Duration : 2h 52mn
Bit rate mode : Constant
Bit rate : 448 Kbps
Channel(s) : 6 channels
Channel positions : Front: L C R, Side: L R, LFE
Sampling rate : 48.0 KHz
Bit depth : 16 bits
Compression mode : Lossy
Stream size : 552 MiB (6%)
Title : DVO R5
Language : Russian
Default : Yes
Forced : No
Audio #2
ID : 3
Format : AC-3
Format/Info : Audio Coding 3
Mode extension : CM (complete main)
Format settings, Endianness : Big
Codec ID : A_AC3
Duration : 2h 52mn
Bit rate mode : Constant
Bit rate : 160 Kbps
Channel(s) : 2 channels
Channel positions : Front: L R
Sampling rate : 48.0 KHz
Bit depth : 16 bits
Compression mode : Lossy
Stream size : 197 MiB (2%)
Title : DVO НТВ+
Language : Russian
Default : No
Forced : No
Audio #3
ID : 4
Format : AC-3
Format/Info : Audio Coding 3
Mode extension : CM (complete main)
Format settings, Endianness : Big
Codec ID : A_AC3
Duration : 2h 52mn
Bit rate mode : Constant
Bit rate : 384 Kbps
Channel(s) : 6 channels
Channel positions : Front: L C R, Side: L R, LFE
Sampling rate : 48.0 KHz
Bit depth : 16 bits
Compression mode : Lossy
Stream size : 473 MiB (5%)
Title : VO
Language : Russian
Default : No
Forced : No
Audio #4
ID : 5
Format : DTS
Format/Info : Digital Theater Systems
Mode : 16
Format settings, Endianness : Big
Codec ID : A_DTS
Duration : 2h 52mn
Bit rate mode : Constant
Bit rate : 1 509 Kbps
Channel(s) : 6 channels
Channel positions : Front: L C R, Side: L R, LFE
Sampling rate : 48.0 KHz
Bit depth : 24 bits
Compression mode : Lossy
Stream size : 1.82 GiB (22%)
Language : English
Default : No
Forced : No
Text #1
ID : 6
Format : UTF-8
Codec ID : S_TEXT/UTF8
Codec ID/Info : UTF-8 Plain Text
Title : Forced
Language : Russian
Default : Yes
Forced : Yes
Text #2
ID : 7
Format : UTF-8
Codec ID : S_TEXT/UTF8
Codec ID/Info : UTF-8 Plain Text
Title : 1
Language : Russian
Default : No
Forced : No
Text #3
ID : 8
Format : UTF-8
Codec ID : S_TEXT/UTF8
Codec ID/Info : UTF-8 Plain Text
Title : 2
Language : Russian
Default : No
Forced : No
Text #4
ID : 9
Format : UTF-8
Codec ID : S_TEXT/UTF8
Codec ID/Info : UTF-8 Plain Text
Language : Ukrainian
Default : No
Forced : No
Text #5
ID : 10
Format : UTF-8
Codec ID : S_TEXT/UTF8
Codec ID/Info : UTF-8 Plain Text
Language : English
Default : No
Forced : No
Text #6
ID : 11
Format : UTF-8
Codec ID : S_TEXT/UTF8
Codec ID/Info : UTF-8 Plain Text
Title : SDH
Language : English
Default : No
Forced : No
Menu
00:00:00.000 : en:Main Titles
00:02:37.991 : en:The Prisoners Arrive
00:10:43.309 : en:Escape Attempt #1
00:18:48.127 : en:The Blind Spot
00:22:11.371 : en:To The Cooler
00:25:59.766 : en:Barlett's Arrival
00:29:39.444 : en:The Objective
00:33:18.329 : en:The Escape Committee
00:36:45.244 : en:Forger & Scrounger
00:40:32.138 : en:Stealing Steel
00:42:23.707 : en:Tunneling Begins.
00:45:22.386 : en:Spot Inspection
00:46:56.814 : en:Hilts & Ives' Plan
00:56:45.193 : en:Come All Ye Faithful
00:58:07.192 : en:Tempting The Guard
01:10:20.049 : en:Dealing For A Camera
01:12:18.751 : en:Tunnel Collapse
01:17:51.541 : en:Independence Day
01:25:36.756 : en:Finding "Tom"
01:31:17.305 : en:Doubts Abut Blythe
01:44:44.569 : en:The Escape Begins
01:53:42.398 : en:20 Feet Short
02:03:10.132 : en:Discovered!
02:15:58.817 : en:The Chase
02:20:06.314 : en:Death At The Station
02:24:37.710 : en:Taking The Plane
02:28:40.661 : en:Crash Landing
02:31:14.398 : en:Motorcycle Pursuit
02:33:19.023 : en:The Resistance
02:40:29.620 : en:The Massacre
02:48:13.374 : en:Back To The Cooler
02:50:09.449 : en:End Titles

Скриншоты


_________________
Показать сообщения:    

Текущее время: Сегодня 14:27

Часовой пояс: GMT



Вы не можете начинать темы
Вы не можете отвечать на сообщения
Вы не можете редактировать свои сообщения
Вы не можете удалять свои сообщения
Вы не можете голосовать в опросах
Вы не можете прикреплять файлы к сообщениям
Вы не можете скачивать файлы
Наши партнеры: интернет магазин Ивановского трикотажа textilla.ru