Ивановский Торрент трекер
Яндекс.Погода
 

[Цитировать]
HUNTER

Большой первоклассник и маленькая второклассница
Ookii 1 Nensei to Chiisana 2 Nensei
The Big First Grader and The Little Second Grader
大きい1年生と小さな2年生
- Страна: Япония
Год выпуска: 2014 г.
Жанр: приключения, повседневность
Тип: короткометражный фильм (часть проекта Anime Mirai 2014)
Продолжительность: ~25 мин.-Студия:
Режиссер: Ватанабэ Аюму (Kanojo ga Flag o Oraretara, Uchuu Kyoudai)
Дизайн: Канеко Шизуэ (Kanojo ga Flag o Oraretara, Nazo no Kanojo X)-Перевод:

  • русские субтитры от [Zombieanne] (внешним файлом)-Описание:Первоклассник Масая, несмотря на свой большой рост, боится тёмной тропы через лес и его маленькой, но бойкой подруге Акио приходится провожать его до школы.
    Масая хочет быть таким же сильным как Акио, и однажды, увидев, как она плачет после горькой обиды, он решает подарить Акио букет её любимых колокольчиков, чтобы утешить девочку. Теперь ему предстоит далёкий путь по незнакомой дороге через тёмный лес.
    -Ссылки: WorldArt || Official Site || MyAnimeList || AnimeNewsNetwork || AniDB-Качество: BDRip
    Тип релиза: без хардсаба
    Формат видео: MP4
    Наличие линковки: Нет
    Релиз/Автор рипа: Kamigami
    Видео: x264, 8bit, 1280x720, 1 400 Kbps, 23.976fps
    Аудио JPN: (в составе контейнера) AAC, 2 ch, 256 кбит/с, 48000Hz-

    Подробные тех. данные
GeneralComplete name : path_removed\[Kamigami] Okii Ichinensei to Chiisana Ninensei (BD 1280x720 x264 AAC).mp4Format : MPEG-4Format profile : Base MediaCodec ID : isomFile size : 298 MiBDuration : 25mn 2sOverall bit rate : 1 662 KbpsEncoded date : UTC 2014-03-24 13:23:07Tagged date : UTC 2014-03-24 13:23:07
VideoID : 1Format : AVCFormat/Info : Advanced Video CodecFormat profile : Main@L3.1Format settings, CABAC : YesFormat settings, ReFrames : 5 framesFormat settings, GOP : M=13, N=24Codec ID : avc1Codec ID/Info : Advanced Video CodingDuration : 25mn 2sBit rate : 1 402 KbpsMaximum bit rate : 12.5 MbpsWidth : 1 280 pixelsHeight : 720 pixelsDisplay aspect ratio : 16:9Frame rate mode : ConstantFrame rate : 23.976 fpsColor space : YUVChroma subsampling : 4:2:0Bit depth : 8 bitsScan type : ProgressiveBits/(Pixel*Frame) : 0.063Stream size : 251 MiB (84%)Title : h264@GPAC0.5.1-DEV-rev4929Encoded date : UTC 2014-03-24 13:23:07Tagged date : UTC 2014-03-24 13:23:13
AudioID : 2Format : AACFormat/Info : Advanced Audio CodecFormat profile : LCCodec ID : 40Duration : 25mn 2sBit rate mode : VariableBit rate : 256 KbpsMaximum bit rate : 262 KbpsChannel(s) : 2 channelsChannel positions : Front: L RSampling rate : 48.0 KHzCompression mode : LossyStream size : 45.9 MiB (15%)Title : aac@GPAC0.5.1-DEV-rev4929Encoded date : UTC 2014-03-24 13:23:10Tagged date : UTC 2014-03-24 13:23:13
Скриншоты
Показать сообщения:    

Текущее время: 24-Сен 06:01

Часовой пояс: UTC - 1


Вы не можете начинать темы
Вы не можете отвечать на сообщения
Вы не можете редактировать свои сообщения
Вы не можете удалять свои сообщения
Вы не можете голосовать в опросах
Вы не можете прикреплять файлы к сообщениям
Вы не можете скачивать файлы

!ВНИМАНИЕ!
Сайт не предоставляет электронные версии произведений, а занимается лишь коллекционированием и каталогизацией ссылок, присылаемых и публикуемых на форуме нашими читателями. Если вы являетесь правообладателем какого-либо представленного материала и не желаете, чтобы ссылка на него находилась в нашем каталоге, свяжитесь с нами, и мы незамедлительно удалим ее. Файлы для обмена на трекере предоставлены пользователями сайта, и администрация не несет ответственности за их содержание. Просьба не заливать файлы, защищенные авторскими правами, а также файлы нелегального содержания!