Ивановский Торрент трекер
Яндекс.Погода
 

[Цитировать]
HUNTER

Большой белый обман / The Great White Hype
Страна: США
Жанр: комедия
Год выпуска: 1996
Продолжительность: 01:24:24
Перевод: Профессиональный (многоголосый закадровый) 1 канал
Cубтитры: нет
Оригинальная аудиодорожка: нет
Режиссер: Реджинальд Хадлин / Reginald Hudlin
В ролях: Сэмюэл Л. Джексон, Джефф Голдблюм, Питер Берг, Корбин Бернсен, Джон Ловиц, Чич Марин, Джон Рис-Дэвис, Салли Ричардсон, Джейми Фокс, Роки Кэрролл, Альберт Холл, Сьюзэн Гибни, Майкл Джейс, Дуан Дэвис, Ламонт Джонсон, Дэймон Уайанс, Сэм Уиппл, Лиделл М. Чешир, Стью Нэхен, Ферди Пачеко, Аль Родриго, Фил Букман, Рени Гриффин, Берт Рэндольф Шуга, Уолтер Эддисон, Джонатан П. Хикс, Крэйг Моддерно, Тим Саки, Майкл Фэйрмэн, Брэд Блэйсделл, Джеймс Харди, Недра Волц, Рик Скарри, Элизабет ЛаРоу, Элисон Крофт, Кристал Л. Хаус, Ричард Стил, Энтони Джонсон, Брайан Сетцер, Метод Мэн, Ирв Доттен, Дизер Ди, Рено
Описание: Бокс - это всегда больше, чем просто спорт, чаще это бизнес и тотализатор. И Фред Салтан – менеджер чемпиона среди тяжеловесов - не новичок в этой игре. По его мнению все средства хороши, чтобы озолотиться. А значит, его подопечному - чемпиону Джеймсу Роперу недостаточно заполучить достойного соперника, ему необходим скандал. Фреду нужен Тэри Конклин - "белый" боксер, некогда одержавший громкую победу над Ропером. Правда, он давно отошел от большого спорта. Что ж, тем ярче будет победа. Но в этот раз безупречное чутье Салтана дало осечку: все с самого начала пошло не так...
Доп. информация: HDTV имеет немного большее наполнение кадра, чем DVD:

Сравнение

DVD................................HDTV


Сэмпл: https://yadi.sk/i/buVNuvSUepCnq
Тип релиза: HDTV 1080i
Контейнер: TS
Видео: AVC, 1920x1080 (16/9), 25.000 fps, 14.3 Mbps (0.276 bit/pixel)
Аудио: MP2, 48.0 KHz, 2 ch, 192 Kbps, CBR (Russian)

MediaInfo

Общее
Идентификатор : 3 (0x3)
Полное имя : K:\Большой белый обман.ts
Формат : MPEG-TS
Размер файла : 9,17 Гбайт
Продолжительность : 1 ч. 24 м.
Режим общего битрейта : Переменный
Общий поток : 15,6 Мбит/сек
Видео
Идентификатор : 2141 (0x85D)
Идентификатор меню : 21004 (0x520C)
Формат : AVC
Формат/Информация : Advanced Video Codec
Профиль формата : Main@L4.0
Параметр CABAC формата : Да
Параметр ReFrames формата : 3 кадра
Идентификатор кодека : 27
Продолжительность : 1 ч. 24 м.
Битрейт : 14,6 Мбит/сек
Ширина : 1920 пикселей
Высота : 1080 пикселей
Соотношение сторон : 16:9
Частота кадров : 25,000 кадров/сек
Стандарт вещания : Component
Цветовое пространство : YUV
Субдискретизация насыщенности : 4:2:0
Битовая глубина : 8 бит
Тип развёртки : Чересстрочная
Порядок развёртки : Верхнее поле первое
Бит/(Пиксели*Кадры) : 0.282
Размер потока : 8,61 Гбайт (94%)
Основные цвета : BT.709
Характеристики трансфера : BT.709
Коэффициенты матрицы : BT.709
Аудио
Идентификатор : 2142 (0x85E)
Идентификатор меню : 21004 (0x520C)
Формат : MPEG Audio
Версия формата : Version 1
Профиль формата : Layer 2
Идентификатор кодека : 4
Продолжительность : 1 ч. 24 м.
Вид битрейта : Постоянный
Битрейт : 192 Кбит/сек
Каналы : 2 канала
Частота : 48,0 КГц
Метод сжатия : С потерями
Задержка видео : -21 мс.
Размер потока : 116 Мбайт (1%)
Язык : Russian

Скриншоты

Показать сообщения:    

Текущее время: 19-Окт 19:08

Часовой пояс: UTC - 1


Вы не можете начинать темы
Вы не можете отвечать на сообщения
Вы не можете редактировать свои сообщения
Вы не можете удалять свои сообщения
Вы не можете голосовать в опросах
Вы не можете прикреплять файлы к сообщениям
Вы не можете скачивать файлы

!ВНИМАНИЕ!
Сайт не предоставляет электронные версии произведений, а занимается лишь коллекционированием и каталогизацией ссылок, присылаемых и публикуемых на форуме нашими читателями. Если вы являетесь правообладателем какого-либо представленного материала и не желаете, чтобы ссылка на него находилась в нашем каталоге, свяжитесь с нами, и мы незамедлительно удалим ее. Файлы для обмена на трекере предоставлены пользователями сайта, и администрация не несет ответственности за их содержание. Просьба не заливать файлы, защищенные авторскими правами, а также файлы нелегального содержания!