Ивановский Торрент трекер
Яндекс.Погода
 

[Цитировать]
HUNTER

Большие часы / The Big Clock
Страна: США
Студия: Paramount Pictures
Жанр: фильм-нуар, триллер, драма, криминал, детектив
Год выпуска: 1948
Продолжительность: 01:35:26
Перевод 1: Профессиональный (многоголосый закадровый) Film Prestige
Перевод 2: Профессиональный (многоголосый закадровый) СТС
Перевод 3: Авторский (одноголосый закадровый) Пётр Карцев
Перевод 4: Профессиональный (многоголосый закадровый)
Cубтитры: русские, английские
Оригинальная аудиодорожка: английский
Режиссер: Джон Фэрроу / John Farrow
В ролях: Рэй Милланд, Чарльз Лотон, Морин О’Салливан, Джордж Макреди, Рита Джонсон, Эльза Ланчестер, Харольд Вермилиея, Дэн Тобин, Гарри Морган, Ричард Уэбб
Описание: Всего за 24 часа Джордж Страуд превратился из преуспевающего редактора отдела криминальных новостей газеты «Мир Новостей» в подозреваемого в убийстве.
Запертый внутри здания собственной редакции, преследуемый полицейскими и наемными убийцами, он должен постараться спастись и доказать свою невиновность за отведенные ему минуты жизни, отсчитываемые большими часами под куполом небоскреба. Накануне он собирался в отпуск с любимой женой и детьми, но перед отъездом решил заскочить в редакцию…
Сэмпл: http://multi-up.com/989699
Тип релиза: BDRip 720p
Контейнер: MKV
Видео: MPEG4 Video (H264) 960x720 23.976fps 5 033 Kbps
Аудио 1: Russian AC-3 2 ch 48.0 KHz 192 Kbps - Film Prestige
Аудио 2: Russian AC-3 1 ch 48.0 KHz 96.0 Kbps - СТС
Аудио 3: Russian AC-3 1 ch 48.0 KHz 96.0 Kbps - Kartsev
Аудио 4: Russian AC-3 5 ch 48.0 KHz 384 Kbps - Неизвестный
Аудио 5: English DTS 2 ch 48.0 KHz 1 509 Kbps - Original
Формат субтитров: softsub (SRT)

MediaInfo

General
Unique ID : 234665654815820488680049408666228348602 (0xB08AF60E1DDBBD95915570685DFDD6BA)
Complete name : D:\The.Big.Clock.1948.BDRip.720p.mkv
Format : Matroska
Format version : Version 4 / Version 2
File size : 4.87 GiB
Duration : 1h 35mn
Overall bit rate : 7 313 Kbps
Encoded date : UTC 2014-07-31 08:37:56
Writing application : mkvmerge v6.9.1 ('Blue Panther') 64bit built on Apr 18 2014 18:23:38
Writing library : libebml v1.3.0 + libmatroska v1.4.1
Video
ID : 1
Format : AVC
Format/Info : Advanced Video Codec
Format profile : High@L4.1
Format settings, CABAC : Yes
Format settings, ReFrames : 5 frames
Codec ID : V_MPEG4/ISO/AVC
Duration : 1h 35mn
Bit rate : 5 033 Kbps
Width : 960 pixels
Height : 720 pixels
Display aspect ratio : 4:3
Frame rate mode : Constant
Frame rate : 23.976 fps
Color space : YUV
Chroma subsampling : 4:2:0
Bit depth : 8 bits
Scan type : Progressive
Bits/(Pixel*Frame) : 0.304
Stream size : 3.26 GiB (67%)
Writing library : x264 core 142 r2431 ac76440
Encoding settings : cabac=1 / ref=5 / deblock=1:-3:-3 / analyse=0x3:0x133 / me=umh / subme=8 / psy=1 / psy_rd=1.00:0.15 / mixed_ref=1 / me_range=16 / chroma_me=1 / trellis=1 / 8x8dct=1 / cqm=0 / deadzone=21,11 / fast_pskip=0 / chroma_qp_offset=-4 / threads=18 / lookahead_threads=3 / sliced_threads=0 / nr=0 / decimate=1 / interlaced=0 / bluray_compat=0 / constrained_intra=0 / bframes=3 / b_pyramid=2 / b_adapt=2 / b_bias=0 / direct=3 / weightb=1 / open_gop=0 / weightp=2 / keyint=230 / keyint_min=22 / scenecut=40 / intra_refresh=0 / rc_lookahead=50 / rc=2pass / mbtree=1 / bitrate=5033 / ratetol=1.0 / qcomp=0.60 / qpmin=10 / qpmax=69 / qpstep=4 / cplxblur=20.0 / qblur=0.5 / ip_ratio=1.40 / aq=1:1.00
Language : English
Default : Yes
Forced : No
Audio #1
ID : 2
Format : AC-3
Format/Info : Audio Coding 3
Mode extension : CM (complete main)
Format settings, Endianness : Big
Codec ID : A_AC3
Duration : 1h 35mn
Bit rate mode : Constant
Bit rate : 192 Kbps
Channel count : 2 channels
Channel positions : Front: L R
Sampling rate : 48.0 KHz
Bit depth : 16 bits
Compression mode : Lossy
Stream size : 131 MiB (3%)
Title : MVO "Film Prestige"
Language : Russian
Default : Yes
Forced : No
Audio #2
ID : 3
Format : AC-3
Format/Info : Audio Coding 3
Mode extension : CM (complete main)
Format settings, Endianness : Big
Codec ID : A_AC3
Duration : 1h 35mn
Bit rate mode : Constant
Bit rate : 96.0 Kbps
Channel count : 1 channel
Channel positions : Front: C
Sampling rate : 48.0 KHz
Bit depth : 16 bits
Compression mode : Lossy
Stream size : 65.5 MiB (1%)
Title : MVO "CTC"
Language : Russian
Default : No
Forced : No
Audio #3
ID : 4
Format : AC-3
Format/Info : Audio Coding 3
Mode extension : CM (complete main)
Format settings, Endianness : Big
Codec ID : A_AC3
Duration : 1h 35mn
Bit rate mode : Constant
Bit rate : 96.0 Kbps
Channel count : 1 channel
Channel positions : Front: C
Sampling rate : 48.0 KHz
Bit depth : 16 bits
Compression mode : Lossy
Stream size : 65.5 MiB (1%)
Title : AVO "Kartsev"
Language : Russian
Default : No
Forced : No
Audio #4
ID : 5
Format : AC-3
Format/Info : Audio Coding 3
Mode extension : CM (complete main)
Format settings, Endianness : Big
Codec ID : A_AC3
Duration : 1h 35mn
Bit rate mode : Constant
Bit rate : 384 Kbps
Channel count : 5 channels
Channel positions : Front: L C R, Side: L R
Sampling rate : 48.0 KHz
Bit depth : 16 bits
Compression mode : Lossy
Stream size : 262 MiB (5%)
Title : MVO
Language : Russian
Default : No
Forced : No
Audio #5
ID : 6
Format : DTS
Format/Info : Digital Theater Systems
Mode : 16
Format settings, Endianness : Big
Codec ID : A_DTS
Duration : 1h 35mn
Bit rate mode : Constant
Bit rate : 1 509 Kbps
Channel count : 2 channels
Channel positions : Front: L R
Sampling rate : 48.0 KHz
Bit depth : 16 bits
Compression mode : Lossy
Stream size : 1.01 GiB (21%)
Language : English
Default : No
Forced : No
Text #1
ID : 7
Format : UTF-8
Codec ID : S_TEXT/UTF8
Codec ID/Info : UTF-8 Plain Text
Language : Russian
Default : Yes
Forced : No
Text #2
ID : 8
Format : UTF-8
Codec ID : S_TEXT/UTF8
Codec ID/Info : UTF-8 Plain Text
Language : English
Default : No
Forced : No
Menu
00:00:00.000 : en:00:00:00.000
00:01:32.091 : en:00:01:32.091
00:11:24.141 : en:00:11:24.141
00:15:27.217 : en:00:15:27.217
00:19:18.115 : en:00:19:18.115
00:27:31.775 : en:00:27:31.775
00:32:16.643 : en:00:32:16.643
00:37:08.142 : en:00:37:08.142
00:43:22.308 : en:00:43:22.308
00:54:43.613 : en:00:54:43.613
01:03:06.157 : en:01:03:06.157
01:12:40.814 : en:01:12:40.814
01:15:45.916 : en:01:15:45.916
01:19:53.163 : en:01:19:53.163
01:25:54.149 : en:01:25:54.149
01:29:22.523 : en:01:29:22.523

Скриншоты

0 человек читают эту тему: 0 пользователей, 0 скрытых пользователей, 0 гостей

Показать сообщения:    

Текущее время: 24-Авг 03:59

Часовой пояс: UTC - 1


Вы не можете начинать темы
Вы не можете отвечать на сообщения
Вы не можете редактировать свои сообщения
Вы не можете удалять свои сообщения
Вы не можете голосовать в опросах
Вы не можете прикреплять файлы к сообщениям
Вы не можете скачивать файлы

!ВНИМАНИЕ!
Сайт не предоставляет электронные версии произведений, а занимается лишь коллекционированием и каталогизацией ссылок, присылаемых и публикуемых на форуме нашими читателями. Если вы являетесь правообладателем какого-либо представленного материала и не желаете, чтобы ссылка на него находилась в нашем каталоге, свяжитесь с нами, и мы незамедлительно удалим ее. Файлы для обмена на трекере предоставлены пользователями сайта, и администрация не несет ответственности за их содержание. Просьба не заливать файлы, защищенные авторскими правами, а также файлы нелегального содержания!