Ивановский Торрент трекер
Яндекс.Погода
 

[Цитировать]
HUNTER

Большие гонки / The Great Race / Полная версия
Страна: США
Студия: Jalem Productions, Patricia, Reynard, Warner Bros. Pictures
Жанр: Мелодрама, Комедия, Приключения, Семейный, Спорт
Год выпуска: 1965
Продолжительность: 02:39:58-Перевод 1: Профессиональный (дублированный) Советский Дубляж (со вставками многоголосого в урезанных частях)]
Перевод 2: Профессиональный (многоголосый закадровый)
Перевод 3: Профессиональный (многоголосый закадровый) ДВД-магия
Перевод 4: Профессиональный (многоголосый закадровый) Фильм-Престиж
Cубтитры: Русские, Английские
Оригинальная аудиодорожка: Английский-Режиссер: Блейк Эдвардс / Blake Edwards
В ролях: Джек Леммон, Тони Кертис, Натали Вуд, Питер Фальк, Кинен Уинн, Артур О’Коннелл, Вивиан Вэнс, Дороти Провайн, Ларри Сторч, Росс Мартин-Описание:Начало ХХ века. Знаменитый испытатель, рыцарь без страха и упрека, всегда с иголочки одетый во все белое, Лесли по прозвищу Великий организует беспрецедентный автопробег Нью-Йорк-Париж. Завистливый и злобный изобретатель профессор Фэйт со своим верным слугой Максом принимает вызов Лесли. Он готов на все, лишь бы тот не добрался до финиша живым. Но какое приключение без женщины. И она появляется — красотка Мэгги обещает редактору ежедневной газеты сделать сенсационный репортаж с места событий и отправляется навстречу опасностям за рулем своей колымаги. Гонка стартовала, герой, красавица и злодей отправляются в путь…- -Тип релиза: BDRip 1080p
Контейнер: MKV
Видео: MPEG-4 AVC/H.264, 1920x796, ~12.9 Mbps, 23.976 fps
Аудио 1: AC3 2.0, 192 kbps, 48 kHz, 16 bit [Русский профессиональный (дублированный) Советский Дубляж (со вставками многоголосого в урезанных частях)]
Аудио 2: AC3 2.0, 192 kbps, 48 kHz, 16 bit [Русский профессиональный (многоголосый, закадровый)]
Аудио 3: AC3 5.1, 640 kbps, 48 kHz, 16 bit [Русский профессиональный (многоголосый, закадровый) ДВД-магия]
Аудио 4: AC3 5.1, 640 kbps, 48 kHz, 16 bit [Русский профессиональный (многоголосый, закадровый) Фильм-Престиж]
Аудио 5: AC3 2.0, 192 kbps, 48 kHz, 16 bit [Украинский профессиональный (многоголосый, закадровый) Так Треба Продакшн для "Интер"]
Аудио 6: AC3 5.1, 640 kbps, 48 kHz, 16 bit [Английский Оригинал]
Формат субтитров: softsub (SRT)

MediaInfo

General
Unique ID                                : 249183095388604037531563595259332106360 (0xBB76EB231ABD0371872B50BF9B219878)
Complete name                            : D:\Films\The Great Race\The Great Race (1965) BDRip [1080p].mkv
Format                                   : Matroska
Format version                           : Version 2
File size                                : 17.6 GiB
Duration                                 : 2h 39mn
Overall bit rate                         : 15.7 Mbps
Movie name                               : the_great_race_[ СПАМ
Encoded date                             : UTC 2014-12-15 19:48:28
Writing application                      : mkvmerge v4.0.0 ('The Stars were mine') сборка от Jun  6 2010 16:18:42
Writing library                          : libebml v1.0.0   libmatroska v1.0.0
Attachements                             : cover.jpg
Video
ID                                       : 1
Format                                   : AVC
Format/Info                              : Advanced Video Codec
Format profile                           : High@L4.1
Format settings, CABAC                   : Yes
Format settings, ReFrames                : 5 frames
Codec ID                                 : V_MPEG4/ISO/AVC
Duration                                 : 2h 39mn
Bit rate                                 : 12.9 Mbps
Width                                    : 1 920 pixels
Height                                   : 796 pixels
Display aspect ratio                     : 2.40:1
Frame rate mode                          : Constant
Frame rate                               : 23.976 fps
Color space                              : YUV
Chroma subsampling                       : 4:2:0
Bit depth                                : 8 bits
Scan type                                : Progressive
Bits/(Pixel*Frame)                       : 0.352
Stream size                              : 14.4 GiB (82%)
Title                                    : the_great_race_[ СПАМ
Writing library                          : x264 core 142 r2479 dd79a61
Encoding settings                        : cabac=1 / ref=5 / deblock=1:-3:-3 / analyse=0x3:0x133 / me=umh / subme=10 / psy=1 / psy_rd=1.00:0.00 / mixed_ref=1 / me_range=48 / chroma_me=1 / trellis=2 / 8x8dct=1 / cqm=0 / deadzone=21,11 / fast_pskip=0 / chroma_qp_offset=-2 / threads=12 / lookahead_threads=2 / sliced_threads=0 / nr=0 / decimate=1 / interlaced=0 / bluray_compat=0 / constrained_intra=0 / bframes=8 / b_pyramid=2 / b_adapt=2 / b_bias=0 / direct=3 / weightb=1 / open_gop=0 / weightp=2 / keyint=240 / keyint_min=22 / scenecut=40 / intra_refresh=0 / rc_lookahead=60 / rc=crf / mbtree=0 / crf=16.5 / qcomp=0.80 / qpmin=0 / qpmax=69 / qpstep=4 / vbv_maxrate=62500 / vbv_bufsize=78125 / crf_max=0.0 / nal_hrd=none / filler=0 / ip_ratio=1.40 / pb_ratio=1.30 / aq=1:0.90
Language                                 : English
Default                                  : No
Forced                                   : No
Color primaries                          : BT.709
Transfer characteristics                 : BT.709
Matrix coefficients                      : BT.709
Color range                              : Limited
Audio #1
ID                                       : 2
Format                                   : AC-3
Format/Info                              : Audio Coding 3
Mode extension                           : CM (complete main)
Format settings, Endianness              : Big
Codec ID                                 : A_AC3
Duration                                 : 2h 39mn
Bit rate mode                            : Constant
Bit rate                                 : 192 Kbps
Channel(s)                               : 2 channels
Channel positions                        : Front: L R
Sampling rate                            : 48.0 KHz
Bit depth                                : 16 bits
Compression mode                         : Lossy
Stream size                              : 220 MiB (1%)
Title                                    : [Профессиональный (дублированный) Советский Дубляж]
Language                                 : Russian
Default                                  : No
Forced                                   : No
Audio #2
ID                                       : 3
Format                                   : AC-3
Format/Info                              : Audio Coding 3
Mode extension                           : CM (complete main)
Format settings, Endianness              : Big
Codec ID                                 : A_AC3
Duration                                 : 2h 39mn
Bit rate mode                            : Constant
Bit rate                                 : 192 Kbps
Channel(s)                               : 2 channels
Channel positions                        : Front: L R
Sampling rate                            : 48.0 KHz
Bit depth                                : 16 bits
Compression mode                         : Lossy
Stream size                              : 220 MiB (1%)
Title                                    : [Профессиональный (многоголосый, закадровый)]
Language                                 : Russian
Default                                  : No
Forced                                   : No
Audio #3
ID                                       : 4
Format                                   : AC-3
Format/Info                              : Audio Coding 3
Mode extension                           : CM (complete main)
Format settings, Endianness              : Big
Codec ID                                 : A_AC3
Duration                                 : 2h 39mn
Bit rate mode                            : Constant
Bit rate                                 : 640 Kbps
Channel(s)                               : 6 channels
Channel positions                        : Front: L C R, Side: L R, LFE
Sampling rate                            : 48.0 KHz
Bit depth                                : 16 bits
Compression mode                         : Lossy
Stream size                              : 732 MiB (4%)
Title                                    : [Профессиональный (многоголосый, закадровый) ДВД-магия]
Language                                 : Russian
Default                                  : No
Forced                                   : No
Audio #4
ID                                       : 5
Format                                   : AC-3
Format/Info                              : Audio Coding 3
Mode extension                           : CM (complete main)
Format settings, Endianness              : Big
Codec ID                                 : A_AC3
Duration                                 : 2h 39mn
Bit rate mode                            : Constant
Bit rate                                 : 640 Kbps
Channel(s)                               : 6 channels
Channel positions                        : Front: L C R, Side: L R, LFE
Sampling rate                            : 48.0 KHz
Bit depth                                : 16 bits
Compression mode                         : Lossy
Stream size                              : 732 MiB (4%)
Title                                    : [Профессиональный (многоголосый, закадровый) Фильм-Престиж]
Language                                 : Russian
Default                                  : No
Forced                                   : No
Audio #5
ID                                       : 6
Format                                   : AC-3
Format/Info                              : Audio Coding 3
Mode extension                           : CM (complete main)
Format settings, Endianness              : Big
Codec ID                                 : A_AC3
Duration                                 : 2h 39mn
Bit rate mode                            : Constant
Bit rate                                 : 192 Kbps
Channel(s)                               : 2 channels
Channel positions                        : Front: L R
Sampling rate                            : 48.0 KHz
Bit depth                                : 16 bits
Compression mode                         : Lossy
Stream size                              : 220 MiB (1%)
Title                                    : [Профессиональный (многоголосый, закадровый) Так Треба Продакшн для "Интер"]
Language                                 : Ukrainian
Default                                  : No
Forced                                   : No
Audio #6
ID                                       : 7
Format                                   : AC-3
Format/Info                              : Audio Coding 3
Mode extension                           : CM (complete main)
Format settings, Endianness              : Big
Codec ID                                 : A_AC3
Duration                                 : 2h 39mn
Bit rate mode                            : Constant
Bit rate                                 : 640 Kbps
Channel(s)                               : 6 channels
Channel positions                        : Front: L C R, Side: L R, LFE
Sampling rate                            : 48.0 KHz
Bit depth                                : 16 bits
Compression mode                         : Lossy
Stream size                              : 732 MiB (4%)
Title                                    : [Оригинал]
Language                                 : English
Default                                  : No
Forced                                   : No
Text #1
ID                                       : 8
Format                                   : UTF-8
Codec ID                                 : S_TEXT/UTF8
Codec ID/Info                            : UTF-8 Plain Text
Language                                 : Russian
Default                                  : No
Forced                                   : No
Text #2
ID                                       : 9
Format                                   : UTF-8
Codec ID                                 : S_TEXT/UTF8
Codec ID/Info                            : UTF-8 Plain Text
Language                                 : English
Default                                  : No
Forced                                   : No
Text #3
ID                                       : 10
Format                                   : UTF-8
Codec ID                                 : S_TEXT/UTF8
Codec ID/Info                            : UTF-8 Plain Text
Language                                 : English
Default                                  : No
Forced                                   : No
Menu
00:00:00.000                             : en:00:00:00.000
00:03:43.890                             : en:00:03:43.890
00:06:39.441                             : en:00:06:39.441
00:10:16.449                             : en:00:10:16.449
00:13:20.967                             : en:00:13:20.967
00:15:49.615                             : en:00:15:49.615
00:18:22.935                             : en:00:18:22.935
00:21:00.885                             : en:00:21:00.885
00:23:37.124                             : en:00:23:37.124
00:25:57.139                             : en:00:25:57.139
00:29:56.795                             : en:00:29:56.795
00:32:50.635                             : en:00:32:50.635
00:37:45.180                             : en:00:37:45.180
00:42:17.243                             : en:00:42:17.243
00:45:31.020                             : en:00:45:31.020
00:51:17.241                             : en:00:51:17.241
00:53:04.973                             : en:00:53:04.973
00:57:24.983                             : en:00:57:24.983
01:00:24.663                             : en:01:00:24.663
01:05:32.762                             : en:01:05:32.762
01:11:17.857                             : en:01:11:17.857
01:16:49.313                             : en:01:16:49.313
01:21:54.076                             : en:01:21:54.076
01:25:27.456                             : en:01:25:27.456
01:28:23.215                             : en:01:28:23.215
01:30:21.875                             : en:01:30:21.875
01:32:09.107                             : en:01:32:09.107
01:36:54.517                             : en:01:36:54.517
01:40:46.165                             : en:01:40:46.165
01:44:34.643                             : en:01:44:34.643
01:48:08.440                             : en:01:48:08.440
01:52:05.218                             : en:01:52:05.218
01:55:02.687                             : en:01:55:02.687
01:59:18.151                             : en:01:59:18.151
02:03:55.261                             : en:02:03:55.261
02:07:52.206                             : en:02:07:52.206
02:13:24.955                             : en:02:13:24.955
02:17:46.133                             : en:02:17:46.133
02:21:18.178                             : en:02:21:18.178
02:26:14.557                             : en:02:26:14.557
02:29:51.482                             : en:02:29:51.482
02:33:31.202                             : en:02:33:31.202
02:36:05.898                             : en:02:36:05.898
02:38:08.479                             : en:02:38:08.479

Скриншоты

Показать сообщения:    

Текущее время: 25-Сен 10:45

Часовой пояс: UTC - 1


Вы не можете начинать темы
Вы не можете отвечать на сообщения
Вы не можете редактировать свои сообщения
Вы не можете удалять свои сообщения
Вы не можете голосовать в опросах
Вы не можете прикреплять файлы к сообщениям
Вы не можете скачивать файлы

!ВНИМАНИЕ!
Сайт не предоставляет электронные версии произведений, а занимается лишь коллекционированием и каталогизацией ссылок, присылаемых и публикуемых на форуме нашими читателями. Если вы являетесь правообладателем какого-либо представленного материала и не желаете, чтобы ссылка на него находилась в нашем каталоге, свяжитесь с нами, и мы незамедлительно удалим ее. Файлы для обмена на трекере предоставлены пользователями сайта, и администрация не несет ответственности за их содержание. Просьба не заливать файлы, защищенные авторскими правами, а также файлы нелегального содержания!