Большие гонки / The Great Race (Блейк Эдвардс / Blake Edwards) [1965, США, мелодрама, комедия, приключения, BDRip 720p] Dub (Советский) + 3x MVO (ДВД-Магия, Фильм-Престиж) + Ukr + Original Eng + subs (Rus, Eng) :: Ивановский Торрент трекер
Важное объявление!
У Нас Все раздачи мультитрекерные, при нуле пиров в релизах, можете смело вставать на закачку!
Статистика раздачи
Размер:     |    Зарегистрирован:     |    Скачан:     |   
Нет
 
     
 
 
Автор Сообщение

HUNTER

Стаж:
4 года 11 месяцев
Сообщений:
66054

Репутация: 101

[+] [-]
Вне форума [Профиль] [ЛС]

Большие гонки / The Great Race-
Год выпуска: 1965
Страна: США
Жанр: мелодрама, комедия, приключения
Продолжительность: 02:39:58
Перевод: Профессиональный (полное дублирование) Советский дубляж
+ Профессиональный (многоголосый, закадровый)
+ Профессиональный (многоголосый, закадровый) ДВД-Магия
+ + Профессиональный (многоголосый, закадровый) Фильм-Престиж
Оригинальная звуковая дорожка: English
Субтитры: Russian, English-Режиссер: Блейк Эдвардс / Blake Edwards
В ролях: Джек Леммон, Тони Кертис, Натали Вуд, Питер Фальк, Кинен Уинн, Артур О’Коннелл, Вивиан Вэнс, Дороти Провайн, Ларри Сторч, Росс Мартин
О фильме: Начало ХХ века. Знаменитый испытатель, рыцарь без страха и упрека, всегда с иголочки одетый во все белое, Лесли по прозвищу Великий организует беспрецедентный автопробег Нью-Йорк-Париж. Завистливый и злобный изобретатель профессор Фэйт со своим верным слугой Максом принимает вызов Лесли. Он готов на все, лишь бы тот не добрался до финиша живым. Но какое приключение без женщины. И она появляется - красотка Мэгги обещает редактору ежедневной газеты сделать сенсационный репортаж с места событий и отправляется навстречу опасностям за рулем своей колымаги. Гонка стартовала, герой, красавица и злодей отправляются в путь...
FANDANGO!
Релиз:
Формат: MKV
Видео: 1280x530 at 23.976 fps, x264, ~4224 kbps avg
Аудио #01: Russian: 48 kHz, AC3, 2.0 (L,R) ch, 192 kbps avg |Советский Дубляж|
Аудио #02: Russian: 48 kHz, AC3, 2.0 (L,R) ch, 192 kbps avg |Многоголосый закадровый|
Аудио #03: Russian: 48 kHz/24-bit, DTS, 3/2 (L,C,R,l,r) + LFE ch, ~1509 kbps avg |Многоголосый закадровый, ДВД-магия|
Аудио #04: Russian: 48 kHz/24-bit, DTS, 3/2 (L,C,R,l,r) + LFE ch, ~1509 kbps avg |Многоголосый закадровый, Фильм-Престиж|
Аудио #05: Ukrainian: 48 kHz, AC3, 2.0 (L,R) ch, 192 kbps avg |Многоголосый закадровый, Так Треба Продакшн для "Интер"|
Аудио #06: English: 48 kHz/24-bit, DTS, 3/2 (L,C,R,l,r) + LFE ch,~1509 kbps avg
Семпл-
-

mInfo

Формат : Matroska
Версия формата : Version 2
Размер файла : 10,6 Гбайт
Продолжительность : 2 ч. 39 м.
Общий поток : 9446 Кбит/сек
Название фильма : The Great Race (1965) - Release for HDCLUB
Дата кодирования : UTC 2014-12-08 23:22:40
Программа кодирования : mkvmerge v5.7.0 ('The Whirlwind') built on Jul 8 2012 20:08:51
Библиотека кодирования : libebml v1.2.3 + libmatroska v1.3.0
Видео
Идентификатор : 1
Формат : AVC
Формат/Информация : Advanced Video Codec
Профиль формата : High@L4.1
Параметр CABAC формата : Да
Параметр ReFrames формата : 12 кадров
Идентификатор кодека : V_MPEG4/ISO/AVC
Продолжительность : 2 ч. 39 м.
Битрейт : 4156 Кбит/сек
Ширина : 1280 пикселей
Высота : 530 пикселей
Соотношение сторон : 2,40:1
Режим частоты кадров : Постоянный
Частота кадров : 23,976 кадра/сек
Цветовое пространство : YUV
Субдискретизация насыщенности : 4:2:0
Битовая глубина : 8 бит
Тип развёртки : Прогрессивная
Бит/(Пиксели*Кадры) : 0.255
Размер потока : 4,64 Гбайт (44%)
Библиотека кодирования : x264 core 142 r2431+42 c69a006 tMod [8-bit@all X86_64]
Настройки программы : cabac=1 / ref=12 / deblock=1:-3:-3 / analyse=0x3:0x133 / me=umh / subme=9 / psy=1 / fade_compensate=0.00 / psy_rd=1.00:0.00 / mixed_ref=1 / me_range=24 / chroma_me=1 / trellis=2 / 8x8dct=1 / cqm=0 / deadzone=21,11 / fast_pskip=0 / chroma_qp_offset=-2 / threads=6 / lookahead_threads=1 / sliced_threads=0 / nr=0 / decimate=0 / interlaced=0 / bluray_compat=0 / constrained_intra=0 / fgo=0 / bframes=8 / b_pyramid=2 / b_adapt=2 / b_bias=0 / direct=3 / weightb=1 / open_gop=0 / weightp=2 / keyint=250 / keyint_min=23 / scenecut=40 / intra_refresh=0 / rc=crf / mbtree=0 / crf=18.0000 / qcomp=0.60 / qpmin=0:0:0 / qpmax=69:69:69 / qpstep=4 / ip_ratio=1.20 / pb_ratio=1.10 / aq=4:0.95 / aq-sensitivity=10.00 / aq-factor=1.00:1.00:1.00 / aq2=0 / aq3=0
Язык : English
Default : Да
Forced : Нет
Аудио #1
Идентификатор : 2
Формат : AC-3
Формат/Информация : Audio Coding 3
Расширение режима : CM (complete main)
Параметр Endianness формата : Big
Идентификатор кодека : A_AC3
Продолжительность : 2 ч. 39 м.
Вид битрейта : Постоянный
Битрейт : 192 Кбит/сек
Каналы : 2 канала
Расположение каналов : Front: L R
Частота : 48,0 КГц
Битовая глубина : 16 бит
Метод сжатия : С потерями
Размер потока : 220 Мбайт (2%)
Заголовок : |Советский Дубляж|
Язык : Russian
Default : Да
Forced : Нет
Аудио #2
Идентификатор : 3
Формат : AC-3
Формат/Информация : Audio Coding 3
Расширение режима : CM (complete main)
Параметр Endianness формата : Big
Идентификатор кодека : A_AC3
Продолжительность : 2 ч. 39 м.
Вид битрейта : Постоянный
Битрейт : 192 Кбит/сек
Каналы : 2 канала
Расположение каналов : Front: L R
Частота : 48,0 КГц
Битовая глубина : 16 бит
Метод сжатия : С потерями
Размер потока : 220 Мбайт (2%)
Заголовок : |Многоголосый закадровый|
Язык : Russian
Default : Нет
Forced : Нет
Аудио #3
Идентификатор : 4
Формат : DTS
Формат/Информация : Digital Theater Systems
Режим : 16
Параметр Endianness формата : Big
Идентификатор кодека : A_DTS
Продолжительность : 2 ч. 39 м.
Вид битрейта : Постоянный
Битрейт : 1509 Кбит/сек
Каналы : 6 каналов
Расположение каналов : Front: L C R, Side: L R, LFE
Частота : 48,0 КГц
Битовая глубина : 24 бит
Метод сжатия : С потерями
Размер потока : 1,69 Гбайт (16%)
Заголовок : |Многоголосый закадровый, ДВД-магия|
Язык : Russian
Default : Нет
Forced : Нет
Аудио #4
Идентификатор : 5
Формат : DTS
Формат/Информация : Digital Theater Systems
Режим : 16
Параметр Endianness формата : Big
Идентификатор кодека : A_DTS
Продолжительность : 2 ч. 39 м.
Вид битрейта : Постоянный
Битрейт : 1509 Кбит/сек
Каналы : 6 каналов
Расположение каналов : Front: L C R, Side: L R, LFE
Частота : 48,0 КГц
Битовая глубина : 24 бит
Метод сжатия : С потерями
Размер потока : 1,69 Гбайт (16%)
Заголовок : |Многоголосый закадровый, Фильм-Престиж|
Язык : Russian
Default : Нет
Forced : Нет
Аудио #5
Идентификатор : 6
Формат : AC-3
Формат/Информация : Audio Coding 3
Расширение режима : CM (complete main)
Параметр Endianness формата : Big
Идентификатор кодека : A_AC3
Продолжительность : 2 ч. 39 м.
Вид битрейта : Постоянный
Битрейт : 192 Кбит/сек
Каналы : 2 канала
Расположение каналов : Front: L R
Частота : 48,0 КГц
Битовая глубина : 16 бит
Метод сжатия : С потерями
Размер потока : 220 Мбайт (2%)
Заголовок : |Многоголосый закадровый, Так Треба Продакшн для "Интер"|
Язык : Ukrainian
Default : Нет
Forced : Нет
Аудио #6
Идентификатор : 7
Формат : DTS
Формат/Информация : Digital Theater Systems
Режим : 16
Параметр Endianness формата : Big
Идентификатор кодека : A_DTS
Продолжительность : 2 ч. 39 м.
Вид битрейта : Постоянный
Битрейт : 1509 Кбит/сек
Каналы : 6 каналов
Расположение каналов : Front: L C R, Side: L R, LFE
Частота : 48,0 КГц
Битовая глубина : 24 бит
Метод сжатия : С потерями
Размер потока : 1,69 Гбайт (16%)
Язык : English
Default : Нет
Forced : Нет
Текст #1
Идентификатор : 8
Формат : UTF-8
Идентификатор кодека : S_TEXT/UTF8
Идентификатор кодека/Информация : UTF-8 Plain Text
Язык : Russian
Default : Нет
Forced : Нет
Текст #2
Идентификатор : 9
Формат : UTF-8
Идентификатор кодека : S_TEXT/UTF8
Идентификатор кодека/Информация : UTF-8 Plain Text
Язык : English
Default : Нет
Forced : Нет
Текст #3
Идентификатор : 10
Формат : UTF-8
Идентификатор кодека : S_TEXT/UTF8
Идентификатор кодека/Информация : UTF-8 Plain Text
Заголовок : SDH
Язык : English
Default : Нет
Forced : Нет
Меню
00:00:00.000 : en:00:00:00.000
00:03:43.890 : en:00:03:43.890
00:06:39.441 : en:00:06:39.441
00:10:16.449 : en:00:10:16.449
00:13:20.967 : en:00:13:20.967
00:15:49.615 : en:00:15:49.615
00:18:22.935 : en:00:18:22.935
00:21:00.885 : en:00:21:00.885
00:23:37.124 : en:00:23:37.124
00:25:57.139 : en:00:25:57.139
00:29:56.795 : en:00:29:56.795
00:32:50.635 : en:00:32:50.635
00:37:45.180 : en:00:37:45.180
00:42:17.243 : en:00:42:17.243
00:45:31.020 : en:00:45:31.020
00:51:17.241 : en:00:51:17.241
00:53:04.973 : en:00:53:04.973
00:57:24.983 : en:00:57:24.983
01:00:24.663 : en:01:00:24.663
01:05:32.762 : en:01:05:32.762
01:11:17.857 : en:01:11:17.857
01:16:49.313 : en:01:16:49.313
01:21:54.076 : en:01:21:54.076
01:25:27.456 : en:01:25:27.456
01:28:23.215 : en:01:28:23.215
01:30:21.875 : en:01:30:21.875
01:32:09.107 : en:01:32:09.107
01:36:54.517 : en:01:36:54.517
01:40:46.165 : en:01:40:46.165
01:44:34.643 : en:01:44:34.643
01:48:08.440 : en:01:48:08.440
01:52:05.218 : en:01:52:05.218
01:55:02.687 : en:01:55:02.687
01:59:18.151 : en:01:59:18.151
02:03:55.261 : en:02:03:55.261
02:07:52.206 : en:02:07:52.206
02:13:24.955 : en:02:13:24.955
02:17:46.133 : en:02:17:46.133
02:21:18.178 : en:02:21:18.178
02:26:14.557 : en:02:26:14.557
02:29:51.482 : en:02:29:51.482
02:33:31.202 : en:02:33:31.202
02:36:05.898 : en:02:36:05.898
02:38:08.479 : en:02:38:08.479

-
Цитата:
Цитата:

* Сохранены оригинальные чаптеры как на Blu-ray.
* За ремукс спасибо krat11

_________________
Показать сообщения:    

Текущее время: Сегодня 10:46

Часовой пояс: GMT



Вы не можете начинать темы
Вы не можете отвечать на сообщения
Вы не можете редактировать свои сообщения
Вы не можете удалять свои сообщения
Вы не можете голосовать в опросах
Вы не можете прикреплять файлы к сообщениям
Вы не можете скачивать файлы