Важное объявление!
У Нас Все раздачи мультитрекерные, при нуле пиров в релизах, можете смело вставать на закачку!
Статистика раздачи
Размер:     |    Зарегистрирован:     |    Скачан:     |   
Нет
 
     
 
 
Автор Сообщение

HUNTER

Стаж:
5 лет
Сообщений:
68042

Репутация: 101

[+] [-]
Вне форума [Профиль] [ЛС]

Большая игра / Big Game
Страна: Финляндия, Великобритания, Германия
Студия: Altitude Film Entertainment, Bavaria Film Partners, Egoli Tossell Film AG, Film House Germany, Head Gear Films, Ketchup Entertainment, Metrol Technology, Subzero Film Entertainment, VisionPlus Fund I, Waterstone Entertainment
Жанр: боевик, приключения
Год выпуска: 2014
Продолжительность: 01:30:23
Перевод: Профессиональный (дублированный) iTunes Russia
Cубтитры: нет
Оригинальная аудиодорожка: нет
Режиссер: Ялмари Хеландер / Jalmari Helander
В ролях: Сэмюэл Л. Джексон, Онни Томмила, Рэй Стивенсон, Виктор Гарбер, Мехмет Куртулуш, Тед Левайн, Йорма Томмила, Ристо Сэлми, Фелисити Хаффман, Джим Бродбент
Описание: История робкого подростка по имени Оскари. Как и его прадеды, согласно традициям, мальчик должен провести один день и одну ночь в непроходимой глуши. Вооружённый только луком и стрелами, он должен вернуться с добычей, которая ознаменует его становление как мужчины. Кто бы мог подумать, что такой добычей станет президент США! Вот так судьба одного из самых влиятельных людей во всем мире оказывается в руках подростка. Вовлеченные в смертельно опасную, но от этого не менее смешную игру в «кошки-мышки», имея всего несколько часов форы – Оскари и Президент США должны сплотиться, чтобы пережить самую необычную ночь в своей жизни.
Доп. информация: Сохранены оригинальные главы. Исходный WEB-DL куплен в рамках сервиса "Копилка".


Сэмпл: http://sendfile.su/1156346
Тип релиза: WEB-DL 720p
Контейнер: MKV
Видео: 1280x532 at 24.000 fps (True24p), MPEG-4 AVC, ~4000 kbps avg
Аудио: RUS | 48 kHz, AC3, 3/2 (L,C,R,l,r) + LFE ch, ~384.00 kbps avg | Дубляж, iTunes Russia

MediaInfo

General
Unique ID : 187041403548192158248373204329466308349 (0x8CB6DD2EAB5BA22A980BA32BEE1A26FD)
Complete name : D:\Big.Game.2014.720p.WEB-DL.Rus.HDCLUB.mkv
Format : Matroska
Format version : Version 2
File size : 2.79 GiB
Duration : 1h 30mn
Overall bit rate : 4 424 Kbps
Movie name : Big Game (2014) - Release for HDCLUB
Encoded date : UTC 2015-08-24 09:17:07
Writing application : mkvmerge v3.4.0 ('Rapunzel') built on May 15 2010 09:38:20
Writing library : libebml v0.8.0 + libmatroska v0.9.0
Video
ID : 1
Format : AVC
Format/Info : Advanced Video Codec
Format profile : Main@L3.1
Format settings, CABAC : No
Format settings, ReFrames : 2 frames
Codec ID : V_MPEG4/ISO/AVC
Duration : 1h 30mn
Bit rate : 3 952 Kbps
Width : 1 280 pixels
Height : 532 pixels
Display aspect ratio : 2.40:1
Frame rate mode : Constant
Frame rate : 24.000 fps
Color space : YUV
Chroma subsampling : 4:2:0
Bit depth : 8 bits
Scan type : Progressive
Bits/(Pixel*Frame) : 0.242
Stream size : 2.49 GiB (89%)
Title : Big Game (2014) - Release for HDCLUB
Language : English
Default : Yes
Forced : No
Color range : Limited
Color primaries : BT.709
Transfer characteristics : BT.709
Matrix coefficients : BT.709
Audio
ID : 2
Format : AC-3
Format/Info : Audio Coding 3
Mode extension : CM (complete main)
Format settings, Endianness : Big
Codec ID : A_AC3
Duration : 1h 30mn
Bit rate mode : Constant
Bit rate : 384 Kbps
Channel(s) : 6 channels
Channel positions : Front: L C R, Side: L R, LFE
Sampling rate : 48.0 KHz
Compression mode : Lossy
Stream size : 248 MiB (9%)
Title : AC3 5.1 @ 384 kbps - DUB, iTunes
Language : Russian
Default : Yes
Forced : No
Menu
00:00:00.000 : en:1
00:04:14.000 : en:2
00:07:45.000 : en:3
00:12:24.000 : en:4
00:16:35.000 : en:5
00:20:17.000 : en:6
00:25:05.000 : en:7
00:28:38.000 : en:8
00:33:53.000 : en:9
00:37:40.000 : en:10
00:43:11.000 : en:11
00:48:43.000 : en:12
00:54:42.000 : en:13
01:00:34.000 : en:14
01:06:24.000 : en:15
01:11:13.000 : en:16
01:16:13.000 : en:17
01:20:44.000 : en:18

Скриншоты


_________________
Показать сообщения:    

Текущее время: Сегодня 14:49

Часовой пояс: GMT



Вы не можете начинать темы
Вы не можете отвечать на сообщения
Вы не можете редактировать свои сообщения
Вы не можете удалять свои сообщения
Вы не можете голосовать в опросах
Вы не можете прикреплять файлы к сообщениям
Вы не можете скачивать файлы